  0
SECTION
  2
HEADER
  9
$ACADVER
  1
AC1014
  9
$ACADMAINTVER
 70
             0
  9
$DWGCODEPAGE
  3
DOS932
  9
$INSBASE
 10
0.0
 20
0.0
 30
0.0
  9
$EXTMIN
 10
0.0
 20
0.0
 30
0.0
  9
$EXTMAX
 10
2970.0
 20
2100.0
 30
0.0
  9
$LIMMIN
 10
0.0
 20
0.0
  9
$LIMMAX
 10
0.0
 20
0.0
  9
$ORTHOMODE
 70
             0
  9
$REGENMODE
 70
             1
  9
$FILLMODE
 70
             1
  9
$QTEXTMODE
 70
             0
  9
$MIRRTEXT
 70
             1
  9
$DRAGMODE
 70
             2
  9
$LTSCALE
 40
1.0
  9
$OSMODE
 70
             0
  9
$ATTMODE
 70
             1
  9
$TEXTSIZE
 40
0.2
  9
$TRACEWID
 40
0.05
  9
$TEXTSTYLE
  7
STANDARD
  9
$CLAYER
  8
0
  9
$CELTYPE
  6
CONTINUOUS
  9
$CECOLOR
 62
           256
  9
$CELTSCALE
 40
1.0
  9
$DELOBJ
 70
             1
  9
$DISPSILH
 70
             0
  9
$DIMSCALE
 40
1.0
  9
$DIMASZ
 40
0.18
  9
$DIMEXO
 40
0.0625
  9
$DIMDLI
 40
0.38
  9
$DIMRND
 40
0.0
  9
$DIMDLE
 40
0.0
  9
$DIMEXE
 40
0.18
  9
$DIMTP
 40
0.0
  9
$DIMTM
 40
0.0
  9
$DIMTXT
 40
0.18
  9
$DIMCEN
 40
0.09
  9
$DIMTSZ
 40
0.0
  9
$DIMTOL
 70
             0
  9
$DIMLIM
 70
             0
  9
$DIMTIH
 70
             1
  9
$DIMTOH
 70
             1
  9
$DIMSE1
 70
             0
  9
$DIMSE2
 70
             0
  9
$DIMTAD
 70
             0
  9
$DIMZIN
 70
             0
  9
$DIMBLK
  1

  9
$DIMASO
 70
             1
  9
$DIMSHO
 70
             1
  9
$DIMPOST
  1

  9
$DIMAPOST
  1

  9
$DIMALT
 70
             0
  9
$DIMALTD
 70
             2
  9
$DIMALTF
 40
25.4
  9
$DIMLFAC
 40
1.0
  9
$DIMTOFL
 70
             0
  9
$DIMTVP
 40
0.0
  9
$DIMTIX
 70
             0
  9
$DIMSOXD
 70
             0
  9
$DIMSAH
 70
             0
  9
$DIMBLK1
  1

  9
$DIMBLK2
  1

  9
$DIMSTYLE
  2
STANDARD
  9
$DIMCLRD
 70
             0
  9
$DIMCLRE
 70
             0
  9
$DIMCLRT
 70
             0
  9
$DIMTFAC
 40
1.0
  9
$DIMGAP
 40
0.09
  9
$DIMJUST
 70
             0
  9
$DIMSD1
 70
             0
  9
$DIMSD2
 70
             0
  9
$DIMTOLJ
 70
             1
  9
$DIMTZIN
 70
             0
  9
$DIMALTZ
 70
             0
  9
$DIMALTTZ
 70
             0
  9
$DIMFIT
 70
             3
  9
$DIMUPT
 70
             0
  9
$DIMUNIT
 70
             2
  9
$DIMDEC
 70
             4
  9
$DIMTDEC
 70
             4
  9
$DIMALTU
 70
             2
  9
$DIMALTTD
 70
             2
  9
$DIMTXSTY
  7
STANDARD
  9
$DIMAUNIT
 70
             0
  9
$LUNITS
 70
             2
  9
$LUPREC
 70
             4
  9
$SKETCHINC
 40
0.1
  9
$FILLETRAD
 40
0.0
  9
$AUNITS
 70
             0
  9
$AUPREC
 70
             0
  9
$MENU
  1
acad
  9
$ELEVATION
 40
0.0
  9
$PELEVATION
 40
0.0
  9
$THICKNESS
 40
0.0
  9
$LIMCHECK
 70
             0
  9
$BLIPMODE
 70
             1
  9
$CHAMFERA
 40
0.0
  9
$CHAMFERB
 40
0.0
  9
$CHAMFERC
 40
0.0
  9
$CHAMFERD
 40
0.0
  9
$SKPOLY
 70
             0
  9
$TDCREATE
 40
0.000000000
  9
$TDUPDATE
 40
0.000000000
  9
$TDINDWG
 40
0.0000000000
  9
$TDUSRTIMER
 40
0.0000000000
  9
$USRTIMER
 70
             1
  9
$ANGBASE
 50
0.0
  9
$ANGDIR
 70
             0
  9
$PDMODE
 70
             0
  9
$PDSIZE
 40
0.0
  9
$PLINEWID
 40
0.0
  9
$COORDS
 70
             0
  9
$SPLFRAME
 70
             0
  9
$SPLINETYPE
 70
             6
  9
$SPLINESEGS
 70
             8
  9
$ATTDIA
 70
             0
  9
$ATTREQ
 70
             1
  9
$HANDLING
 70
             1
  9
$HANDSEED
  5
77A
  9
$SURFTAB1
 70
             6
  9
$SURFTAB2
 70
             6
  9
$SURFTYPE
 70
             6
  9
$SURFU
 70
             6
  9
$SURFV
 70
             6
  9
$UCSNAME
  2

  9
$UCSORG
 10
0.0
 20
0.0
 30
0.0
  9
$UCSXDIR
 10
1.0
 20
0.0
 30
0.0
  9
$UCSYDIR
 10
0.0
 20
1.0
 30
0.0
  9
$PUCSNAME
  2

  9
$PUCSORG
 10
0.0
 20
0.0
 30
0.0
  9
$PUCSXDIR
 10
1.0
 20
0.0
 30
0.0
  9
$PUCSYDIR
 10
0.0
 20
1.0
 30
0.0
  9
$USERI1
 70
             0
  9
$USERI2
 70
             0
  9
$USERI3
 70
             0
  9
$USERI4
 70
             0
  9
$USERI5
 70
             0
  9
$USERR1
 40
12.01
  9
$USERR2
 40
0.0
  9
$USERR3
 40
0.0
  9
$USERR4
 40
0.0
  9
$USERR5
 40
0.0
  9
$WORLDVIEW
 70
             1
  9
$SHADEDGE
 70
             3
  9
$SHADEDIF
 70
            70
  9
$TILEMODE
 70
             1
  9
$MAXACTVP
 70
            16
  9
$PINSBASE
 10
0.0
 20
0.0
 30
0.0
  9
$PLIMCHECK
 70
             0
  9
$PEXTMIN
 10
1.00000000000000E+20
 20
1.00000000000000E+20
 30
1.00000000000000E+20
  9
$PEXTMAX
 10
-1.00000000000000E+20
 20
-1.00000000000000E+20
 30
-1.00000000000000E+20
  9
$PLIMMIN
 10
0.0
 20
0.0
  9
$PLIMMAX
 10
12.0
 20
9.0
  9
$UNITMODE
 70
             0
  9
$VISRETAIN
 70
             0
  9
$PLINEGEN
 70
             1
  9
$PSLTSCALE
 70
             0
  9
$TREEDEPTH
 70
          3020
  9
$PICKSTYLE
 70
             1
  9
$CMLSTYLE
  2
STANDARD
  9
$CMLJUST
 70
             0
  9
$CMLSCALE
 40
1.0
  9
$PROXYGRAPHICS
 70
             0
  9
$MEASUREMENT
 70
             1
  0
ENDSEC
  0
SECTION
  2
CLASSES
  0
CLASS
  1
LWPOLYLINE
  2
AcDbPolyline
  3
"AutoCAD"
 90
        0
280
             0
281
             1
  0
CLASS
  1
IMAGE
  2
AcDbRasterImage
  3
ISM
 90
      127
280
             0
281
             1
  0
CLASS
  1
OLE2FRAME
  2
AcDbOle2Frame
  3
""
 90
        0
280
             0
281
             1
  0
CLASS
  1
HATCH
  2
AcDbHatch
  3
"ACAD_SEDONA"
 90
        0
280
             0
281
             1
  0
CLASS
  1
DICTIONARYVAR
  2
AcDbDictionaryVar
  3
"AutoCAD"
 90
        0
280
             0
281
             0
  0
CLASS
  1
RASTERVARIABLES
  2
AcDbRasterVariables
  3
ISM
 90
        0
280
             0
281
             0
  0
CLASS
  1
IMAGEDEF
  2
AcDbRasterImageDef
  3
ISM
 90
        0
280
             0
281
             0
  0
CLASS
  1
IMAGEDEF_REACTOR
  2
AcDbRasterImageDefReactor
  3
ISM
 90
        1
280
             0
281
             0
  0
CLASS
  1
IDBUFFER
  2
AcDbIdBuffer
  3
"Acad"
 90
        0
280
             0
281
             0
  0
CLASS
  1
SPATIAL_FILTER
  2
AcDbSpatialFilter
  3
"Acad"
 90
        0
280
             0
281
             0
  0
CLASS
  1
XRECORD
  2
AcDbXrecord
  3
"<Built In>"
 90
        0
280
             0
281
             0
  0
CLASS
  1
SORTENTSTABLE
  2
AcDbSortentsTable
  3
"AutoCAD"
 90
        0
280
             0
281
             0
  0
CLASS
  1
LAYER_INDEX
  2
AcDbLayerIndex
  3
"Acad"
 90
        0
280
             0
281
             0
  0
CLASS
  1
SPATIAL_INDEX
  2
AcDbSpatialIndex
  3
"Acad"
 90
        0
280
             0
281
             0
  0
CLASS
  1
OBJECT_PTR
  2
CAseDLPNTableRecord
  3
"ASE-LPNTableRecord"
 90
        1
280
             0
281
             0
  0
CLASS
  1
LAYOUT
  2
AcDbLayout
  3
"AutoCAD 2000"
 90
        0
280
             0
281
             0
  0
CLASS
  1
PLOTSETTINGS
  2
AcDbPlotSettings
  3
"AutoCAD 2000"
 90
        0
280
             0
281
             0
  0
CLASS
  1
ACDBDICTIONARYWDFLT
  2
AcDbDictionaryWithDefault
  3
"AutoCAD 2000"
 90
        0
280
             0
281
             0
  0
CLASS
  1
ACDBPLACEHOLDER
  2
AcDbPlaceHolder
  3
"AutoCAD 2000"
 90
        0
280
             0
281
             0
  0
ENDSEC
  0
SECTION
  2
TABLES
  0
TABLE
  2
VPORT
  5
7
100
AcDbSymbolTable
 70
             1
  0
VPORT
  5
15
100
AcDbSymbolTableRecord
100
AcDbViewportTableRecord
  2
*ACTIVE
 70
             0
 10
0.0
 20
0.0
 11
1.0
 21
1.0
 12
1485.0
 22
1050.0
 13
0.0
 23
0.0
 14
1.0
 24
1.0
 15
0.0
 25
0.0
 16
0.0
 26
0.0
 36
1.0
 17
0.0
 27
0.0
 37
0.0
 40
2310.0
 41
1.60267857142857
 42
50.0
 43
0.0
 44
0.0
 50
0.0
 51
0.0
 71
             0
 72
           100
 73
             1
 74
             1
 75
             0
 76
             0
 77
             0
 78
             0
  0
ENDTAB
  0
TABLE
  2
LTYPE
  5
4
100
AcDbSymbolTable
 70
            10
  0
LTYPE
  5
11
100
AcDbSymbolTableRecord
100
AcDbLinetypeTableRecord
  2
BYBLOCK
 70
            64
  3

 72
            65
 73
             0
 40
0.0
  0
LTYPE
  5
12
100
AcDbSymbolTableRecord
100
AcDbLinetypeTableRecord
  2
BYLAYER
 70
            64
  3

 72
            65
 73
             0
 40
0.0
  0
LTYPE
  5
13
100
AcDbSymbolTableRecord
100
AcDbLinetypeTableRecord
  2
CONTINUOUS
 70
            64
  3
Solid line
 72
            65
 73
             0
 40
0.0
  0
LTYPE
  5
1D
100
AcDbSymbolTableRecord
100
AcDbLinetypeTableRecord
  2
DASHED
 70
            64
  3
Dashed
 72
            65
 73
             2
 40
15.0
 49
7.0
 74
             0
 49
-8.0
 74
             0
  0
LTYPE
  5
1E
100
AcDbSymbolTableRecord
100
AcDbLinetypeTableRecord
  2
DOTTED
 70
            64
  3
Dotted
 72
            65
 73
             2
 40
1.0
 49
0.0
 74
             0
 49
-1.0
 74
             0
  0
LTYPE
  5
1F
100
AcDbSymbolTableRecord
100
AcDbLinetypeTableRecord
  2
DOT_CENTER
 70
            64
  3
Dot_Center
 72
            65
 73
             4
 40
14.0
 49
12.0
 74
             0
 49
-1.0
 74
             0
 49
0.0
 74
             0
 49
-1.0
 74
             0
  0
LTYPE
  5
20
100
AcDbSymbolTableRecord
100
AcDbLinetypeTableRecord
  2
LONG_DASHED
 70
            64
  3
Long_Dashed
 72
            65
 73
             2
 40
15.0
 49
10.0
 74
             0
 49
-5.0
 74
             0
  0
LTYPE
  5
21
100
AcDbSymbolTableRecord
100
AcDbLinetypeTableRecord
  2
DASH_CENTER
 70
            64
  3
Dash_Center
 72
            65
 73
             4
 40
14.0
 49
11.0
 74
             0
 49
-1.0
 74
             0
 49
1.0
 74
             0
 49
-1.0
 74
             0
  0
LTYPE
  5
22
100
AcDbSymbolTableRecord
100
AcDbLinetypeTableRecord
  2
PHANTOM
 70
            64
  3
Phantom
 72
            65
 73
             6
 40
13.0
 49
10.0
 74
             0
 49
-1.0
 74
             0
 49
0.0
 74
             0
 49
-1.0
 74
             0
 49
0.0
 74
             0
 49
-1.0
 74
             0
  0
LTYPE
  5
23
100
AcDbSymbolTableRecord
100
AcDbLinetypeTableRecord
  2
CENTER_DASH_DASH
 70
            64
  3
Center_Dash_Dash
 72
            65
 73
             6
 40
14.0
 49
9.0
 74
             0
 49
-1.0
 74
             0
 49
1.0
 74
             0
 49
-1.0
 74
             0
 49
1.0
 74
             0
 49
-1.0
 74
             0
  0
ENDTAB
  0
TABLE
  2
LAYER
  5
2
100
AcDbSymbolTable
 70
             9
  0
LAYER
  5
14
100
AcDbSymbolTableRecord
100
AcDbLayerTableRecord
  2
0
 70
             0
 62
             7
  6
CONTINUOUS
  0
LAYER
  5
24
100
AcDbSymbolTableRecord
100
AcDbLayerTableRecord
  2
1
 70
             0
 62
             7
  6
CONTINUOUS
  0
LAYER
  5
25
100
AcDbSymbolTableRecord
100
AcDbLayerTableRecord
  2
2
 70
             0
 62
             7
  6
CONTINUOUS
  0
LAYER
  5
26
100
AcDbSymbolTableRecord
100
AcDbLayerTableRecord
  2
5
 70
             0
 62
             7
  6
CONTINUOUS
  0
LAYER
  5
27
100
AcDbSymbolTableRecord
100
AcDbLayerTableRecord
  2
510
 70
             0
 62
             7
  6
CONTINUOUS
  0
LAYER
  5
28
100
AcDbSymbolTableRecord
100
AcDbLayerTableRecord
  2
520
 70
             0
 62
             7
  6
CONTINUOUS
  0
LAYER
  5
29
100
AcDbSymbolTableRecord
100
AcDbLayerTableRecord
  2
CSLAYER1
 70
             0
 62
             7
  6
CONTINUOUS
  0
LAYER
  5
2A
100
AcDbSymbolTableRecord
100
AcDbLayerTableRecord
  2
CSLAYER19
 70
             0
 62
             7
  6
CONTINUOUS
  0
LAYER
  5
2B
100
AcDbSymbolTableRecord
100
AcDbLayerTableRecord
  2
CSLAYER195
 70
             0
 62
             7
  6
CONTINUOUS
  0
ENDTAB
  0
TABLE
  2
STYLE
  5
3
100
AcDbSymbolTable
 70
             7
  0
STYLE
  5
17
100
AcDbSymbolTableRecord
100
AcDbTextStyleTableRecord
  2
STANDARD
 70
             0
 40
0.0
 41
1.0
 50
0.0
 71
             0
 42
0.0
  3
txt
  4

  0
STYLE
  5
585
100
AcDbSymbolTableRecord
100
AcDbTextStyleTableRecord
  2
CONVERTER_1
 70
             0
 40
0.0
 41
1.07
 50
0.0
 71
             0
 42
0.0
  3
txt.shx
  4

  0
STYLE
  5
587
100
AcDbSymbolTableRecord
100
AcDbTextStyleTableRecord
  2
CONVERTER_2
 70
             0
 40
0.0
 41
0.856
 50
0.0
 71
             0
 42
0.0
  3
txt.shx
  4

  0
STYLE
  5
590
100
AcDbSymbolTableRecord
100
AcDbTextStyleTableRecord
  2
CONVERTER_3
 70
             0
 40
0.0
 41
0.712
 50
0.0
 71
             0
 42
0.0
  3
msmincho.ttc
  4

1001
ACAD
1000
MS Mincho
1071
    32785
  0
STYLE
  5
5B5
100
AcDbSymbolTableRecord
100
AcDbTextStyleTableRecord
  2
CONVERTER_4
 70
             0
 40
0.0
 41
0.89
 50
0.0
 71
             0
 42
0.0
  3
msmincho.ttc
  4

1001
ACAD
1000
MS Mincho
1071
    32785
  0
STYLE
  5
5D4
100
AcDbSymbolTableRecord
100
AcDbTextStyleTableRecord
  2
CONVERTER_5
 70
             0
 40
0.0
 41
0.642
 50
0.0
 71
             0
 42
0.0
  3
txt.shx
  4

  0
STYLE
  5
62F
100
AcDbSymbolTableRecord
100
AcDbTextStyleTableRecord
  2
CONVERTER_6
 70
             0
 40
0.0
 41
0.9
 50
0.0
 71
             0
 42
0.0
  3
txt.shx
  4

  0
ENDTAB
  0
TABLE
  2
VIEW
  5
5
100
AcDbSymbolTable
 70
             0
  0
ENDTAB
  0
TABLE
  2
UCS
  5
6
100
AcDbSymbolTable
 70
             0
  0
ENDTAB
  0
TABLE
  2
APPID
  5
8
100
AcDbSymbolTable
 70
             1
  0
APPID
  5
16
100
AcDbSymbolTableRecord
100
AcDbRegAppTableRecord
  2
ACAD
 70
             0
  0
ENDTAB
  0
TABLE
  2
DIMSTYLE
  5
9
100
AcDbSymbolTable
 70
            26
  0
DIMSTYLE
105
18
100
AcDbSymbolTableRecord
100
AcDbDimStyleTableRecord
  2
STANDARD
 70
             0
  3

  4

  5

  6

  7

 40
1.0
 41
0.18
 42
0.0625
 43
0.38
 44
0.18
 45
0.0
 46
0.0
 47
0.0
 48
0.0
 71
             0
 72
             0
 73
             1
 74
             1
 75
             0
 76
             0
 77
             0
 78
             0
140
0.18
141
0.09
142
0.0
143
25.4
144
1.0
145
0.0
146
1.0
147
0.09
170
             0
171
             2
172
             0
173
             0
174
             0
175
             0
176
             0
177
             0
178
             0
270
             2
271
             4
272
             4
273
             2
274
             2
275
             0
280
             0
281
             0
282
             0
283
             1
284
             0
285
             0
286
             0
287
             3
288
             0
340
17
  0
DIMSTYLE
105
638
100
AcDbSymbolTableRecord
100
AcDbDimStyleTableRecord
  2
ME10_DIM_0
 70
             0
  3

  4

  5

  6
_OPEN30
  7
_OPEN30
 40
1.0
 41
12.25
 42
10.0
 43
0.38
 44
10.0
 45
0.0
 46
0.0
 47
0.0
 48
0.0
 71
             0
 72
             0
 73
             0
 74
             0
 75
             0
 76
             0
 77
             1
 78
             8
140
17.5
141
0.09
142
0.0
143
25.4
144
1.0
145
0.0
146
1.0
147
0.625
170
             0
171
             2
172
             1
173
             1
174
             0
175
             0
176
             7
177
             7
178
             7
270
             2
271
             2
272
             4
273
             2
274
             2
275
             0
280
             0
281
             0
282
             0
283
             1
284
             0
285
             0
286
             0
287
             3
288
             0
340
62F
  0
DIMSTYLE
105
645
100
AcDbSymbolTableRecord
100
AcDbDimStyleTableRecord
  2
ME10_DIM_1
 70
             0
  3

  4

  5

  6
_OPEN30
  7
_OPEN30
 40
1.0
 41
12.25
 42
5.0
 43
0.38
 44
10.0
 45
0.0
 46
0.0
 47
0.0
 48
0.0
 71
             0
 72
             0
 73
             0
 74
             0
 75
             0
 76
             0
 77
             1
 78
             8
140
17.5
141
0.09
142
0.0
143
25.4
144
1.0
145
0.0
146
1.0
147
0.625
170
             0
171
             2
172
             1
173
             1
174
             0
175
             0
176
             7
177
             7
178
             7
270
             2
271
             2
272
             4
273
             2
274
             2
275
             0
280
             0
281
             0
282
             0
283
             1
284
             0
285
             0
286
             0
287
             3
288
             0
340
62F
  0
DIMSTYLE
105
652
100
AcDbSymbolTableRecord
100
AcDbDimStyleTableRecord
  2
ME10_DIM_2
 70
             0
  3

  4

  5

  6
_OPEN30
  7
_OPEN30
 40
1.0
 41
12.25
 42
10.0
 43
0.38
 44
10.0
 45
0.0
 46
0.0
 47
0.0
 48
0.0
 71
             0
 72
             0
 73
             0
 74
             0
 75
             0
 76
             0
 77
             1
 78
             8
140
17.5
141
0.09
142
0.0
143
25.4
144
1.0
145
0.0
146
1.0
147
0.625
170
             0
171
             2
172
             1
173
             1
174
             0
175
             0
176
             7
177
             7
178
             7
270
             2
271
             2
272
             4
273
             2
274
             2
275
             0
280
             0
281
             0
282
             0
283
             1
284
             0
285
             0
286
             0
287
             3
288
             0
340
62F
  0
DIMSTYLE
105
660
100
AcDbSymbolTableRecord
100
AcDbDimStyleTableRecord
  2
ME10_DIM_3
 70
             0
  3

  4

  5

  6
_OPEN30
  7
_OPEN30
 40
1.0
 41
12.25
 42
10.0
 43
0.38
 44
10.0
 45
0.0
 46
0.0
 47
0.0
 48
0.0
 71
             0
 72
             0
 73
             0
 74
             0
 75
             0
 76
             0
 77
             1
 78
             8
140
17.5
141
0.09
142
0.0
143
25.4
144
1.0
145
0.0
146
1.0
147
0.625
170
             0
171
             2
172
             1
173
             1
174
             0
175
             0
176
             7
177
             7
178
             7
270
             2
271
             1
272
             4
273
             2
274
             2
275
             0
280
             0
281
             0
282
             0
283
             1
284
             0
285
             0
286
             0
287
             3
288
             0
340
62F
  0
DIMSTYLE
105
66D
100
AcDbSymbolTableRecord
100
AcDbDimStyleTableRecord
  2
ME10_DIM_4
 70
             0
  3

  4

  5

  6
_OPEN30
  7
_OPEN30
 40
1.0
 41
12.25
 42
10.0
 43
0.38
 44
10.0
 45
0.0
 46
0.0
 47
0.0
 48
0.0
 71
             0
 72
             0
 73
             0
 74
             0
 75
             0
 76
             0
 77
             1
 78
             8
140
17.5
141
0.09
142
0.0
143
25.4
144
1.0
145
0.0
146
1.0
147
0.625
170
             0
171
             2
172
             1
173
             1
174
             0
175
             0
176
             7
177
             7
178
             7
270
             2
271
             1
272
             4
273
             2
274
             2
275
             0
280
             0
281
             0
282
             0
283
             1
284
             0
285
             0
286
             0
287
             3
288
             0
340
62F
  0
DIMSTYLE
105
67A
100
AcDbSymbolTableRecord
100
AcDbDimStyleTableRecord
  2
ME10_DIM_5
 70
             0
  3

  4

  5

  6
_OPEN30
  7
_OPEN30
 40
1.0
 41
12.25
 42
10.0
 43
0.38
 44
10.0
 45
0.0
 46
0.0
 47
0.0
 48
0.0
 71
             0
 72
             0
 73
             0
 74
             0
 75
             0
 76
             0
 77
             1
 78
             8
140
17.5
141
0.09
142
0.0
143
25.4
144
1.0
145
0.0
146
1.0
147
0.625
170
             0
171
             2
172
             1
173
             1
174
             0
175
             0
176
             7
177
             7
178
             7
270
             2
271
             1
272
             4
273
             2
274
             2
275
             0
280
             0
281
             0
282
             0
283
             1
284
             0
285
             0
286
             0
287
             3
288
             0
340
62F
  0
DIMSTYLE
105
687
100
AcDbSymbolTableRecord
100
AcDbDimStyleTableRecord
  2
ME10_DIM_6
 70
             0
  3

  4

  5

  6
_OPEN30
  7
_OPEN30
 40
1.0
 41
12.25
 42
10.0
 43
0.38
 44
10.0
 45
0.0
 46
0.0
 47
0.0
 48
0.0
 71
             0
 72
             0
 73
             0
 74
             0
 75
             0
 76
             0
 77
             1
 78
             8
140
17.5
141
0.09
142
0.0
143
25.4
144
1.0
145
0.0
146
1.0
147
0.625
170
             0
171
             2
172
             1
173
             1
174
             0
175
             0
176
             7
177
             7
178
             7
270
             2
271
             1
272
             4
273
             2
274
             2
275
             0
280
             0
281
             0
282
             0
283
             1
284
             0
285
             0
286
             0
287
             3
288
             0
340
62F
  0
DIMSTYLE
105
694
100
AcDbSymbolTableRecord
100
AcDbDimStyleTableRecord
  2
ME10_DIM_7
 70
             0
  3

  4

  5

  6
_OPEN30
  7
_OPEN30
 40
1.0
 41
12.25
 42
5.0
 43
0.38
 44
10.0
 45
0.0
 46
0.0
 47
0.0
 48
0.0
 71
             0
 72
             0
 73
             0
 74
             0
 75
             0
 76
             0
 77
             1
 78
             8
140
17.5
141
0.09
142
0.0
143
25.4
144
1.0
145
0.0
146
1.0
147
0.625
170
             0
171
             2
172
             1
173
             1
174
             0
175
             0
176
             7
177
             7
178
             7
270
             2
271
             2
272
             4
273
             2
274
             2
275
             0
280
             0
281
             0
282
             0
283
             1
284
             0
285
             0
286
             0
287
             3
288
             0
340
62F
  0
DIMSTYLE
105
6A1
100
AcDbSymbolTableRecord
100
AcDbDimStyleTableRecord
  2
ME10_DIM_8
 70
             0
  3

  4

  5

  6
_OPEN30
  7
_OPEN30
 40
1.0
 41
12.25
 42
5.0
 43
0.38
 44
10.0
 45
0.0
 46
0.0
 47
0.0
 48
0.0
 71
             0
 72
             0
 73
             0
 74
             0
 75
             0
 76
             0
 77
             1
 78
             8
140
17.5
141
0.09
142
0.0
143
25.4
144
1.0
145
0.0
146
1.0
147
0.625
170
             0
171
             2
172
             1
173
             1
174
             0
175
             0
176
             7
177
             7
178
             7
270
             2
271
             2
272
             4
273
             2
274
             2
275
             0
280
             0
281
             0
282
             0
283
             1
284
             0
285
             0
286
             0
287
             3
288
             0
340
62F
  0
DIMSTYLE
105
6B0
100
AcDbSymbolTableRecord
100
AcDbDimStyleTableRecord
  2
ME10_DIM_9
 70
             0
  3

  4

  5

  6
_OPEN30
  7
_OPEN30
 40
1.0
 41
12.25
 42
5.0
 43
0.38
 44
10.0
 45
0.0
 46
0.0
 47
0.0
 48
0.0
 71
             0
 72
             0
 73
             0
 74
             0
 75
             0
 76
             0
 77
             1
 78
             8
140
17.5
141
0.09
142
0.0
143
25.4
144
1.0
145
0.0
146
1.0
147
0.625
170
             0
171
             2
172
             1
173
             1
174
             0
175
             0
176
             7
177
             7
178
             7
270
             2
271
             2
272
             4
273
             2
274
             2
275
             0
280
             0
281
             0
282
             0
283
             1
284
             0
285
             0
286
             0
287
             3
288
             0
340
62F
  0
DIMSTYLE
105
6BD
100
AcDbSymbolTableRecord
100
AcDbDimStyleTableRecord
  2
ME10_DIM_10
 70
             0
  3

  4

  5

  6
_OPEN30
  7
_OPEN30
 40
1.0
 41
12.25
 42
5.0
 43
0.38
 44
10.0
 45
0.0
 46
0.0
 47
0.0
 48
0.0
 71
             0
 72
             0
 73
             0
 74
             0
 75
             0
 76
             0
 77
             1
 78
             8
140
17.5
141
0.09
142
0.0
143
25.4
144
1.0
145
0.0
146
1.0
147
0.625
170
             0
171
             2
172
             1
173
             1
174
             0
175
             0
176
             7
177
             7
178
             7
270
             2
271
             2
272
             4
273
             2
274
             2
275
             0
280
             0
281
             0
282
             0
283
             1
284
             0
285
             0
286
             0
287
             3
288
             0
340
62F
  0
DIMSTYLE
105
6CA
100
AcDbSymbolTableRecord
100
AcDbDimStyleTableRecord
  2
ME10_DIM_11
 70
             0
  3

  4

  5

  6
_OPEN30
  7
_OPEN30
 40
1.0
 41
12.25
 42
10.0
 43
0.38
 44
10.0
 45
0.0
 46
0.0
 47
0.0
 48
0.0
 71
             0
 72
             0
 73
             0
 74
             0
 75
             0
 76
             0
 77
             1
 78
             8
140
17.5
141
0.09
142
0.0
143
25.4
144
1.0
145
0.0
146
1.0
147
0.625
170
             0
171
             2
172
             1
173
             1
174
             0
175
             0
176
             7
177
             7
178
             7
270
             2
271
             1
272
             4
273
             2
274
             2
275
             0
280
             0
281
             0
282
             0
283
             1
284
             0
285
             0
286
             0
287
             3
288
             0
340
62F
  0
DIMSTYLE
105
6D7
100
AcDbSymbolTableRecord
100
AcDbDimStyleTableRecord
  2
ME10_DIM_12
 70
             0
  3

  4

  5

  6
_OPEN30
  7
_OPEN30
 40
1.0
 41
12.25
 42
10.0
 43
0.38
 44
10.0
 45
0.0
 46
0.0
 47
0.0
 48
0.0
 71
             0
 72
             0
 73
             0
 74
             0
 75
             0
 76
             0
 77
             1
 78
             8
140
17.5
141
0.09
142
0.0
143
25.4
144
1.0
145
0.0
146
1.0
147
0.625
170
             0
171
             2
172
             1
173
             1
174
             0
175
             0
176
             7
177
             7
178
             7
270
             2
271
             1
272
             4
273
             2
274
             2
275
             0
280
             0
281
             0
282
             0
283
             1
284
             0
285
             0
286
             0
287
             3
288
             0
340
62F
  0
DIMSTYLE
105
6E4
100
AcDbSymbolTableRecord
100
AcDbDimStyleTableRecord
  2
ME10_DIM_13
 70
             0
  3

  4

  5

  6
_OPEN30
  7
_OPEN30
 40
1.0
 41
12.25
 42
10.0
 43
0.38
 44
10.0
 45
0.0
 46
0.0
 47
0.0
 48
0.0
 71
             0
 72
             0
 73
             0
 74
             0
 75
             0
 76
             0
 77
             1
 78
             8
140
17.5
141
0.09
142
0.0
143
25.4
144
1.0
145
0.0
146
1.0
147
0.625
170
             0
171
             2
172
             1
173
             1
174
             0
175
             0
176
             7
177
             7
178
             7
270
             2
271
             1
272
             4
273
             2
274
             2
275
             0
280
             0
281
             0
282
             0
283
             1
284
             0
285
             0
286
             0
287
             3
288
             0
340
62F
  0
DIMSTYLE
105
6F1
100
AcDbSymbolTableRecord
100
AcDbDimStyleTableRecord
  2
ME10_DIM_14
 70
             0
  3

  4

  5

  6
_OPEN30
  7
_OPEN30
 40
1.0
 41
12.25
 42
10.0
 43
0.38
 44
10.0
 45
0.0
 46
0.0
 47
0.0
 48
0.0
 71
             0
 72
             0
 73
             0
 74
             0
 75
             0
 76
             0
 77
             1
 78
             8
140
17.5
141
0.09
142
0.0
143
25.4
144
1.0
145
0.0
146
1.0
147
0.625
170
             0
171
             2
172
             1
173
             1
174
             0
175
             0
176
             7
177
             7
178
             7
270
             2
271
             1
272
             4
273
             2
274
             2
275
             0
280
             0
281
             0
282
             0
283
             1
284
             0
285
             0
286
             0
287
             3
288
             0
340
62F
  0
DIMSTYLE
105
6FF
100
AcDbSymbolTableRecord
100
AcDbDimStyleTableRecord
  2
ME10_DIM_15
 70
             0
  3

  4

  5

  6
_OPEN30
  7
_OPEN30
 40
1.0
 41
12.25
 42
10.0
 43
0.38
 44
10.0
 45
0.0
 46
0.0
 47
0.0
 48
0.0
 71
             0
 72
             0
 73
             0
 74
             0
 75
             0
 76
             0
 77
             1
 78
             8
140
17.5
141
0.09
142
0.0
143
25.4
144
1.0
145
0.0
146
1.0
147
0.625
170
             0
171
             2
172
             1
173
             1
174
             0
175
             0
176
             7
177
             7
178
             7
270
             2
271
             1
272
             4
273
             2
274
             2
275
             0
280
             0
281
             0
282
             0
283
             1
284
             0
285
             0
286
             0
287
             3
288
             0
340
62F
  0
DIMSTYLE
105
70C
100
AcDbSymbolTableRecord
100
AcDbDimStyleTableRecord
  2
ME10_DIM_16
 70
             0
  3

  4

  5

  6
_OPEN30
  7
_OPEN30
 40
1.0
 41
12.25
 42
10.0
 43
0.38
 44
10.0
 45
0.0
 46
0.0
 47
0.0
 48
0.0
 71
             0
 72
             0
 73
             0
 74
             0
 75
             0
 76
             0
 77
             1
 78
             8
140
17.5
141
0.09
142
0.0
143
25.4
144
1.0
145
0.0
146
1.0
147
0.625
170
             0
171
             2
172
             1
173
             1
174
             0
175
             0
176
             7
177
             7
178
             7
270
             2
271
             1
272
             4
273
             2
274
             2
275
             0
280
             0
281
             0
282
             0
283
             1
284
             0
285
             0
286
             0
287
             3
288
             0
340
62F
  0
DIMSTYLE
105
719
100
AcDbSymbolTableRecord
100
AcDbDimStyleTableRecord
  2
ME10_DIM_17
 70
             0
  3

  4

  5

  6
_OPEN30
  7
_OPEN30
 40
1.0
 41
12.25
 42
10.0
 43
0.38
 44
10.0
 45
0.0
 46
0.0
 47
0.0
 48
0.0
 71
             0
 72
             0
 73
             0
 74
             0
 75
             0
 76
             0
 77
             1
 78
             8
140
17.5
141
0.09
142
0.0
143
25.4
144
1.0
145
0.0
146
1.0
147
0.625
170
             0
171
             2
172
             1
173
             1
174
             0
175
             0
176
             7
177
             7
178
             7
270
             2
271
             1
272
             4
273
             2
274
             2
275
             0
280
             0
281
             0
282
             0
283
             1
284
             0
285
             0
286
             0
287
             3
288
             0
340
62F
  0
DIMSTYLE
105
726
100
AcDbSymbolTableRecord
100
AcDbDimStyleTableRecord
  2
ME10_DIM_18
 70
             0
  3

  4

  5

  6
_OPEN30
  7
_OPEN30
 40
1.0
 41
12.25
 42
10.0
 43
0.38
 44
10.0
 45
0.0
 46
0.0
 47
0.0
 48
0.0
 71
             0
 72
             0
 73
             0
 74
             0
 75
             0
 76
             0
 77
             1
 78
             8
140
17.5
141
0.09
142
0.0
143
25.4
144
1.0
145
0.0
146
1.0
147
0.625
170
             0
171
             2
172
             1
173
             1
174
             0
175
             0
176
             7
177
             7
178
             7
270
             2
271
             1
272
             4
273
             2
274
             2
275
             0
280
             0
281
             0
282
             0
283
             1
284
             0
285
             0
286
             0
287
             3
288
             0
340
62F
  0
DIMSTYLE
105
733
100
AcDbSymbolTableRecord
100
AcDbDimStyleTableRecord
  2
ME10_DIM_19
 70
             0
  3

  4

  5

  6
_OPEN30
  7
_OPEN30
 40
1.0
 41
12.25
 42
10.0
 43
0.38
 44
10.0
 45
0.0
 46
0.0
 47
0.0
 48
0.0
 71
             0
 72
             0
 73
             0
 74
             0
 75
             0
 76
             0
 77
             1
 78
             8
140
17.5
141
0.09
142
0.0
143
25.4
144
1.0
145
0.0
146
1.0
147
0.625
170
             0
171
             2
172
             1
173
             1
174
             0
175
             0
176
             7
177
             7
178
             7
270
             2
271
             1
272
             4
273
             2
274
             2
275
             0
280
             0
281
             0
282
             0
283
             1
284
             0
285
             0
286
             0
287
             3
288
             0
340
62F
  0
DIMSTYLE
105
742
100
AcDbSymbolTableRecord
100
AcDbDimStyleTableRecord
  2
ME10_DIM_20
 70
             0
  3

  4

  5

  6
_OPEN30
  7
_OPEN30
 40
1.0
 41
12.25
 42
10.0
 43
0.38
 44
10.0
 45
0.0
 46
0.0
 47
0.0
 48
0.0
 71
             0
 72
             0
 73
             0
 74
             0
 75
             0
 76
             0
 77
             1
 78
             8
140
17.5
141
0.09
142
0.0
143
25.4
144
1.0
145
0.0
146
1.0
147
0.625
170
             0
171
             2
172
             1
173
             1
174
             0
175
             0
176
             7
177
             7
178
             7
270
             2
271
             1
272
             4
273
             2
274
             2
275
             0
280
             0
281
             0
282
             0
283
             1
284
             0
285
             0
286
             0
287
             3
288
             0
340
62F
  0
DIMSTYLE
105
74F
100
AcDbSymbolTableRecord
100
AcDbDimStyleTableRecord
  2
ME10_DIM_21
 70
             0
  3

  4

  5

  6
_OPEN30
  7
_OPEN30
 40
1.0
 41
12.25
 42
10.0
 43
0.38
 44
10.0
 45
0.0
 46
0.0
 47
0.0
 48
0.0
 71
             0
 72
             0
 73
             0
 74
             0
 75
             0
 76
             0
 77
             1
 78
             8
140
17.5
141
0.09
142
0.0
143
25.4
144
1.0
145
0.0
146
1.0
147
0.625
170
             0
171
             2
172
             1
173
             1
174
             0
175
             0
176
             7
177
             7
178
             7
270
             2
271
             1
272
             4
273
             2
274
             2
275
             0
280
             0
281
             0
282
             0
283
             1
284
             0
285
             0
286
             0
287
             3
288
             0
340
62F
  0
DIMSTYLE
105
75C
100
AcDbSymbolTableRecord
100
AcDbDimStyleTableRecord
  2
ME10_DIM_22
 70
             0
  3

  4

  5

  6
_OPEN30
  7
_OPEN30
 40
1.0
 41
12.25
 42
10.0
 43
0.38
 44
10.0
 45
0.0
 46
0.0
 47
0.0
 48
0.0
 71
             0
 72
             0
 73
             0
 74
             0
 75
             0
 76
             0
 77
             1
 78
             8
140
17.5
141
0.09
142
0.0
143
25.4
144
1.0
145
0.0
146
1.0
147
0.625
170
             0
171
             2
172
             1
173
             1
174
             0
175
             0
176
             7
177
             7
178
             7
270
             2
271
             1
272
             4
273
             2
274
             2
275
             0
280
             0
281
             0
282
             0
283
             1
284
             0
285
             0
286
             0
287
             3
288
             0
340
62F
  0
DIMSTYLE
105
76A
100
AcDbSymbolTableRecord
100
AcDbDimStyleTableRecord
  2
ME10_DIM_23
 70
             0
  3

  4

  5

  6
_OPEN30
  7
_OPEN30
 40
1.0
 41
12.25
 42
10.0
 43
0.38
 44
10.0
 45
0.0
 46
0.0
 47
0.0
 48
0.0
 71
             0
 72
             0
 73
             0
 74
             0
 75
             0
 76
             0
 77
             1
 78
             8
140
17.5
141
0.09
142
0.0
143
25.4
144
1.0
145
0.0
146
1.0
147
0.625
170
             0
171
             2
172
             1
173
             1
174
             0
175
             0
176
             7
177
             7
178
             7
270
             2
271
             1
272
             4
273
             2
274
             2
275
             0
280
             0
281
             0
282
             0
283
             1
284
             0
285
             0
286
             0
287
             3
288
             0
340
62F
  0
DIMSTYLE
105
777
100
AcDbSymbolTableRecord
100
AcDbDimStyleTableRecord
  2
ME10_DIM_24
 70
             0
  3

  4

  5

  6
_OPEN30
  7
_OPEN30
 40
1.0
 41
12.25
 42
10.0
 43
0.38
 44
10.0
 45
0.0
 46
0.0
 47
0.0
 48
0.0
 71
             0
 72
             0
 73
             0
 74
             0
 75
             0
 76
             0
 77
             1
 78
             8
140
17.5
141
0.09
142
0.0
143
25.4
144
1.0
145
0.0
146
1.0
147
0.625
170
             0
171
             2
172
             1
173
             1
174
             0
175
             0
176
             7
177
             7
178
             7
270
             2
271
             1
272
             4
273
             2
274
             2
275
             0
280
             0
281
             0
282
             0
283
             1
284
             0
285
             0
286
             0
287
             3
288
             0
340
62F
  0
ENDTAB
  0
TABLE
  2
BLOCK_RECORD
  5
1
100
AcDbSymbolTable
 70
            26
  0
BLOCK_RECORD
  5
A
100
AcDbSymbolTableRecord
100
AcDbBlockTableRecord
  2
*MODEL_SPACE
  0
BLOCK_RECORD
  5
B
100
AcDbSymbolTableRecord
100
AcDbBlockTableRecord
  2
*PAPER_SPACE
  0
BLOCK_RECORD
  5
626
100
AcDbSymbolTableRecord
100
AcDbBlockTableRecord
  2
*D0
  0
BLOCK_RECORD
  5
632
100
AcDbSymbolTableRecord
100
AcDbBlockTableRecord
  2
_OPEN30
  0
BLOCK_RECORD
  5
63A
100
AcDbSymbolTableRecord
100
AcDbBlockTableRecord
  2
*D2
  0
BLOCK_RECORD
  5
647
100
AcDbSymbolTableRecord
100
AcDbBlockTableRecord
  2
*D3
  0
BLOCK_RECORD
  5
654
100
AcDbSymbolTableRecord
100
AcDbBlockTableRecord
  2
*D4
  0
BLOCK_RECORD
  5
662
100
AcDbSymbolTableRecord
100
AcDbBlockTableRecord
  2
*D5
  0
BLOCK_RECORD
  5
66F
100
AcDbSymbolTableRecord
100
AcDbBlockTableRecord
  2
*D6
  0
BLOCK_RECORD
  5
67C
100
AcDbSymbolTableRecord
100
AcDbBlockTableRecord
  2
*D7
  0
BLOCK_RECORD
  5
689
100
AcDbSymbolTableRecord
100
AcDbBlockTableRecord
  2
*D8
  0
BLOCK_RECORD
  5
696
100
AcDbSymbolTableRecord
100
AcDbBlockTableRecord
  2
*D9
  0
BLOCK_RECORD
  5
6A3
100
AcDbSymbolTableRecord
100
AcDbBlockTableRecord
  2
*D10
  0
BLOCK_RECORD
  5
6B2
100
AcDbSymbolTableRecord
100
AcDbBlockTableRecord
  2
*D11
  0
BLOCK_RECORD
  5
6BF
100
AcDbSymbolTableRecord
100
AcDbBlockTableRecord
  2
*D12
  0
BLOCK_RECORD
  5
6CC
100
AcDbSymbolTableRecord
100
AcDbBlockTableRecord
  2
*D13
  0
BLOCK_RECORD
  5
6D9
100
AcDbSymbolTableRecord
100
AcDbBlockTableRecord
  2
*D14
  0
BLOCK_RECORD
  5
6E6
100
AcDbSymbolTableRecord
100
AcDbBlockTableRecord
  2
*D15
  0
BLOCK_RECORD
  5
6F3
100
AcDbSymbolTableRecord
100
AcDbBlockTableRecord
  2
*D16
  0
BLOCK_RECORD
  5
701
100
AcDbSymbolTableRecord
100
AcDbBlockTableRecord
  2
*D17
  0
BLOCK_RECORD
  5
70E
100
AcDbSymbolTableRecord
100
AcDbBlockTableRecord
  2
*D18
  0
BLOCK_RECORD
  5
71B
100
AcDbSymbolTableRecord
100
AcDbBlockTableRecord
  2
*D19
  0
BLOCK_RECORD
  5
728
100
AcDbSymbolTableRecord
100
AcDbBlockTableRecord
  2
*D20
  0
BLOCK_RECORD
  5
735
100
AcDbSymbolTableRecord
100
AcDbBlockTableRecord
  2
*D21
  0
BLOCK_RECORD
  5
744
100
AcDbSymbolTableRecord
100
AcDbBlockTableRecord
  2
*D22
  0
BLOCK_RECORD
  5
751
100
AcDbSymbolTableRecord
100
AcDbBlockTableRecord
  2
*D23
  0
BLOCK_RECORD
  5
75E
100
AcDbSymbolTableRecord
100
AcDbBlockTableRecord
  2
*D24
  0
BLOCK_RECORD
  5
76C
100
AcDbSymbolTableRecord
100
AcDbBlockTableRecord
  2
*D25
  0
ENDTAB
  0
ENDSEC
  0
SECTION
  2
BLOCKS
  0
BLOCK
  5
D
100
AcDbEntity
  8
0
100
AcDbBlockBegin
  2
*MODEL_SPACE
 70
             0
 10
0.0
 20
0.0
 30
0.0
  3
*MODEL_SPACE
  1

  0
ENDBLK
  5
E
100
AcDbEntity
  8
0
100
AcDbBlockEnd
  0
BLOCK
  5
F
100
AcDbEntity
 67
             1
  8
0
100
AcDbBlockBegin
  2
*PAPER_SPACE
 70
             0
 10
0.0
 20
0.0
 30
0.0
  3
*PAPER_SPACE
  1

  0
ENDBLK
  5
10
100
AcDbEntity
 67
             1
  8
0
100
AcDbBlockEnd
  0
BLOCK
  5
627
100
AcDbEntity
  8
0
100
AcDbBlockBegin
  2
*D0
 70
             1
 10
0.0
 20
0.0
 30
0.0
  3
*D0
  1

  0
LINE
  5
628
100
AcDbEntity
  8
0
  6
CONTINUOUS
 62
             7
100
AcDbLine
 10
880.0
 20
474.99999999999994
 11
880.0
 21
1006.0000000000008
  0
LINE
  5
629
100
AcDbEntity
  8
0
  6
CONTINUOUS
 62
             7
100
AcDbLine
 10
1140.0
 20
474.99999999999994
 11
870.0
 21
474.99999999999994
  0
LINE
  5
62A
100
AcDbEntity
  8
0
  6
CONTINUOUS
 62
             7
100
AcDbLine
 10
1665.000500000001
 20
1006.0000000000008
 11
870.0
 21
1006.0000000000008
  0
LINE
  5
62B
100
AcDbEntity
  8
0
 62
             7
100
AcDbLine
 10
880.0
 20
474.99999999999994
 11
876.71762239271879
 21
487.24999999999994
  0
LINE
  5
62C
100
AcDbEntity
  8
0
 62
             7
100
AcDbLine
 10
880.0
 20
474.99999999999994
 11
883.28237760728121
 21
487.24999999999994
  0
LINE
  5
62D
100
AcDbEntity
  8
0
 62
             7
100
AcDbLine
 10
880.0
 20
1006.0000000000008
 11
883.28237760728121
 21
993.7500000000008
  0
LINE
  5
62E
100
AcDbEntity
  8
0
 62
             7
100
AcDbLine
 10
880.0
 20
1006.0000000000008
 11
876.71762239271879
 21
993.7500000000008
  0
MTEXT
  5
630
100
AcDbEntity
  8
0
 62
             7
100
AcDbMText
 10
870.0
 20
725.77633182895511
 30
0.0
 40
17.5
 41
0.0
 71
             7
 72
             1
  1
(535)
  7
CONVERTER_6
 11
0.0
 21
1.0
 31
0.0
  0
ENDBLK
  5
631
100
AcDbEntity
  8
0
100
AcDbBlockEnd
  0
BLOCK
  5
633
100
AcDbEntity
  8
0
 62
             0
100
AcDbBlockBegin
  2
_OPEN30
 70
             0
 10
0.0
 20
0.0
 30
0.0
  3
_OPEN30
  1

  0
LINE
  5
634
100
AcDbEntity
  8
0
  6
BYBLOCK
 62
             0
100
AcDbLine
 10
-1.0
 20
0.267949
 11
0.0
 21
0.0
  0
LINE
  5
635
100
AcDbEntity
  8
0
  6
BYBLOCK
 62
             0
100
AcDbLine
 10
0.0
 20
0.0
 11
-1.0
 21
-0.267949
  0
LINE
  5
636
100
AcDbEntity
  8
0
  6
BYBLOCK
 62
             0
100
AcDbLine
 10
0.0
 20
0.0
 11
-1.0
 21
0.0
  0
ENDBLK
  5
637
100
AcDbEntity
  8
0
 62
             0
100
AcDbBlockEnd
  0
BLOCK
  5
63B
100
AcDbEntity
  8
0
100
AcDbBlockBegin
  2
*D2
 70
             1
 10
0.0
 20
0.0
 30
0.0
  3
*D2
  1

  0
LINE
  5
63C
100
AcDbEntity
  8
0
  6
CONTINUOUS
 62
             7
100
AcDbLine
 10
1149.9999999999998
 20
284.99999999999989
 11
1939.9999999999998
 21
284.99999999999989
  0
LINE
  5
63D
100
AcDbEntity
  8
0
  6
CONTINUOUS
 62
             7
100
AcDbLine
 10
1149.9999999999998
 20
469.99999999999977
 11
1149.9999999999998
 21
274.99999999999989
  0
LINE
  5
63E
100
AcDbEntity
  8
0
  6
CONTINUOUS
 62
             7
100
AcDbLine
 10
1939.9999999999998
 20
469.99999999999977
 11
1939.9999999999998
 21
274.99999999999989
  0
LINE
  5
63F
100
AcDbEntity
  8
0
 62
             7
100
AcDbLine
 10
1149.9999999999998
 20
284.99999999999989
 11
1162.2499999999998
 21
288.28237760728115
  0
LINE
  5
640
100
AcDbEntity
  8
0
 62
             7
100
AcDbLine
 10
1149.9999999999998
 20
284.99999999999989
 11
1162.2499999999998
 21
281.71762239271862
  0
LINE
  5
641
100
AcDbEntity
  8
0
 62
             7
100
AcDbLine
 10
1939.9999999999998
 20
284.99999999999989
 11
1927.7499999999998
 21
281.71762239271862
  0
LINE
  5
642
100
AcDbEntity
  8
0
 62
             7
100
AcDbLine
 10
1939.9999999999998
 20
284.99999999999989
 11
1927.7499999999998
 21
288.28237760728115
  0
MTEXT
  5
643
100
AcDbEntity
  8
0
 62
             7
100
AcDbMText
 10
1518.6897713338649
 20
294.99999999999989
 30
0.0
 40
17.5
 41
0.0
 71
             7
 72
             1
  1
790
  7
CONVERTER_6
 11
0.99999999999706
 21
0.00000242406841
 31
0.0
  0
ENDBLK
  5
644
100
AcDbEntity
  8
0
100
AcDbBlockEnd
  0
BLOCK
  5
648
100
AcDbEntity
  8
0
100
AcDbBlockBegin
  2
*D3
 70
             1
 10
0.0
 20
0.0
 30
0.0
  3
*D3
  1

  0
LINE
  5
649
100
AcDbEntity
  8
0
  6
CONTINUOUS
 62
             7
100
AcDbLine
 10
2129.2716960790499
 20
1299.9999999999998
 11
2129.2716960790499
 21
1722.9990000000014
  0
LINE
  5
64A
100
AcDbEntity
  8
0
  6
CONTINUOUS
 62
             7
100
AcDbLine
 10
1950.0
 20
1299.9999999999998
 11
2139.2716960790499
 21
1299.9999999999998
  0
LINE
  5
64B
100
AcDbEntity
  8
0
  6
CONTINUOUS
 62
             7
100
AcDbLine
 10
1750.0005000000006
 20
1722.9990000000014
 11
2139.2716960790499
 21
1722.9990000000014
  0
LINE
  5
64C
100
AcDbEntity
  8
0
 62
             7
100
AcDbLine
 10
2129.2716960790499
 20
1299.9999999999998
 11
2125.9893184717685
 21
1312.2499999999998
  0
LINE
  5
64D
100
AcDbEntity
  8
0
 62
             7
100
AcDbLine
 10
2129.2716960790499
 20
1299.9999999999998
 11
2132.5540736863313
 21
1312.2499999999998
  0
LINE
  5
64E
100
AcDbEntity
  8
0
 62
             7
100
AcDbLine
 10
2129.2716960790499
 20
1722.9990000000014
 11
2132.5540736863313
 21
1710.7490000000014
  0
LINE
  5
64F
100
AcDbEntity
  8
0
 62
             7
100
AcDbLine
 10
2129.2716960790499
 20
1722.9990000000014
 11
2125.9893184717685
 21
1710.7490000000014
  0
MTEXT
  5
650
100
AcDbEntity
  8
0
 62
             7
100
AcDbMText
 10
2119.2716960790499
 20
1477.9736120485825
 30
0.0
 40
17.5
 41
0.0
 71
             7
 72
             1
  1
(425)
  7
CONVERTER_6
 11
0.0
 21
1.0
 31
0.0
  0
ENDBLK
  5
651
100
AcDbEntity
  8
0
100
AcDbBlockEnd
  0
BLOCK
  5
655
100
AcDbEntity
  8
0
100
AcDbBlockBegin
  2
*D4
 70
             1
 10
0.0
 20
0.0
 30
0.0
  3
*D4
  1

  0
LINE
  5
656
100
AcDbEntity
  8
0
  6
CONTINUOUS
 62
             7
100
AcDbLine
 10
1000.0
 20
1299.9999999999998
 11
1000.0
 21
1265.4096096137375
  0
LINE
  5
657
100
AcDbEntity
  8
0
  6
CONTINUOUS
 62
             7
100
AcDbLine
 10
1000.0
 20
1299.9999999999998
 11
1000.0
 21
1339.9999999999998
  0
LINE
  5
658
100
AcDbEntity
  8
0
  6
CONTINUOUS
 62
             7
100
AcDbLine
 10
1180.0
 20
1339.9999999999998
 11
990.0
 21
1339.9999999999998
  0
LINE
  5
659
100
AcDbEntity
  8
0
  6
CONTINUOUS
 62
             7
100
AcDbLine
 10
1140.0
 20
1299.9999999999998
 11
990.0
 21
1299.9999999999998
  0
LINE
  5
65A
100
AcDbEntity
  8
0
 62
             7
100
AcDbLine
 10
1000.0
 20
1299.9999999999998
 11
996.71762239271879
 21
1312.2499999999998
  0
LINE
  5
65B
100
AcDbEntity
  8
0
 62
             7
100
AcDbLine
 10
1000.0
 20
1299.9999999999998
 11
1003.2823776072812
 21
1312.2499999999998
  0
LINE
  5
65C
100
AcDbEntity
  8
0
 62
             7
100
AcDbLine
 10
1000.0
 20
1339.9999999999998
 11
1003.2823776072812
 21
1327.7499999999998
  0
LINE
  5
65D
100
AcDbEntity
  8
0
 62
             7
100
AcDbLine
 10
1000.0
 20
1339.9999999999998
 11
996.71762239271879
 21
1327.7499999999998
  0
MTEXT
  5
65E
100
AcDbEntity
  8
0
 62
             7
100
AcDbMText
 10
990.0
 20
1265.4096096137375
 30
0.0
 40
17.5
 41
0.0
 71
             7
 72
             1
  1
40
  7
CONVERTER_6
 11
0.0
 21
1.0
 31
0.0
  0
ENDBLK
  5
65F
100
AcDbEntity
  8
0
100
AcDbBlockEnd
  0
BLOCK
  5
663
100
AcDbEntity
  8
0
100
AcDbBlockBegin
  2
*D5
 70
             1
 10
0.0
 20
0.0
 30
0.0
  3
*D5
  1

  0
LINE
  5
664
100
AcDbEntity
  8
0
  6
CONTINUOUS
 62
             7
100
AcDbLine
 10
1000.0
 20
1540.0
 11
1000.0
 21
1640.0000000000002
  0
LINE
  5
665
100
AcDbEntity
  8
0
  6
CONTINUOUS
 62
             7
100
AcDbLine
 10
1233.77
 20
1640.0000000000002
 11
990.0
 21
1640.0000000000002
  0
LINE
  5
666
100
AcDbEntity
  8
0
  6
CONTINUOUS
 62
             7
100
AcDbLine
 10
1235.77
 20
1540.0
 11
990.0
 21
1540.0
  0
LINE
  5
667
100
AcDbEntity
  8
0
 62
             7
100
AcDbLine
 10
1000.0
 20
1540.0
 11
996.71762239271879
 21
1552.25
  0
LINE
  5
668
100
AcDbEntity
  8
0
 62
             7
100
AcDbLine
 10
1000.0
 20
1540.0
 11
1003.2823776072812
 21
1552.25
  0
LINE
  5
669
100
AcDbEntity
  8
0
 62
             7
100
AcDbLine
 10
1000.0
 20
1640.0000000000002
 11
1003.2823776072812
 21
1627.7500000000002
  0
LINE
  5
66A
100
AcDbEntity
  8
0
 62
             7
100
AcDbLine
 10
1000.0
 20
1640.0000000000002
 11
996.71762239271879
 21
1627.7500000000002
  0
MTEXT
  5
66B
100
AcDbEntity
  8
0
 62
             7
100
AcDbMText
 10
990.0
 20
1572.2426470588234
 30
0.0
 40
17.5
 41
0.0
 71
             7
 72
             1
  1
100
  7
CONVERTER_6
 11
0.0
 21
1.0
 31
0.0
  0
ENDBLK
  5
66C
100
AcDbEntity
  8
0
100
AcDbBlockEnd
  0
BLOCK
  5
670
100
AcDbEntity
  8
0
100
AcDbBlockBegin
  2
*D6
 70
             1
 10
0.0
 20
0.0
 30
0.0
  3
*D6
  1

  0
LINE
  5
671
100
AcDbEntity
  8
0
  6
CONTINUOUS
 62
             7
100
AcDbLine
 10
1000.0
 20
1340.0
 11
1000.0
 21
1540.0
  0
LINE
  5
672
100
AcDbEntity
  8
0
  6
CONTINUOUS
 62
             7
100
AcDbLine
 10
1235.77
 20
1540.0
 11
990.0
 21
1540.0
  0
LINE
  5
673
100
AcDbEntity
  8
0
  6
CONTINUOUS
 62
             7
100
AcDbLine
 10
1180.0
 20
1340.0
 11
990.0
 21
1340.0
  0
LINE
  5
674
100
AcDbEntity
  8
0
 62
             7
100
AcDbLine
 10
1000.0
 20
1340.0
 11
996.71762239271879
 21
1352.25
  0
LINE
  5
675
100
AcDbEntity
  8
0
 62
             7
100
AcDbLine
 10
1000.0
 20
1340.0
 11
1003.2823776072812
 21
1352.25
  0
LINE
  5
676
100
AcDbEntity
  8
0
 62
             7
100
AcDbLine
 10
1000.0
 20
1540.0
 11
1003.2823776072812
 21
1527.75
  0
LINE
  5
677
100
AcDbEntity
  8
0
 62
             7
100
AcDbLine
 10
1000.0
 20
1540.0
 11
996.71762239271879
 21
1527.75
  0
MTEXT
  5
678
100
AcDbEntity
  8
0
 62
             7
100
AcDbMText
 10
990.0
 20
1417.8676470588234
 30
0.0
 40
17.5
 41
0.0
 71
             7
 72
             1
  1
200
  7
CONVERTER_6
 11
0.0
 21
1.0
 31
0.0
  0
ENDBLK
  5
679
100
AcDbEntity
  8
0
100
AcDbBlockEnd
  0
BLOCK
  5
67D
100
AcDbEntity
  8
0
100
AcDbBlockBegin
  2
*D7
 70
             1
 10
0.0
 20
0.0
 30
0.0
  3
*D7
  1

  0
LINE
  5
67E
100
AcDbEntity
  8
0
  6
CONTINUOUS
 62
             7
100
AcDbLine
 10
1000.0
 20
780.0
 11
1000.0
 21
830.0
  0
LINE
  5
67F
100
AcDbEntity
  8
0
  6
CONTINUOUS
 62
             7
100
AcDbLine
 10
1235.0
 20
780.0
 11
990.0
 21
780.0
  0
LINE
  5
680
100
AcDbEntity
  8
0
  6
CONTINUOUS
 62
             7
100
AcDbLine
 10
1235.0
 20
830.0
 11
990.0
 21
830.0
  0
LINE
  5
681
100
AcDbEntity
  8
0
 62
             7
100
AcDbLine
 10
1000.0
 20
830.0
 11
1003.2823776072812
 21
817.75
  0
LINE
  5
682
100
AcDbEntity
  8
0
 62
             7
100
AcDbLine
 10
1000.0
 20
830.0
 11
996.71762239271879
 21
817.75
  0
LINE
  5
683
100
AcDbEntity
  8
0
 62
             7
100
AcDbLine
 10
1000.0
 20
780.0
 11
996.71762239271879
 21
792.25
  0
LINE
  5
684
100
AcDbEntity
  8
0
 62
             7
100
AcDbLine
 10
1000.0
 20
780.0
 11
1003.2823776072812
 21
792.25
  0
MTEXT
  5
685
100
AcDbEntity
  8
0
 62
             7
100
AcDbMText
 10
990.0
 20
791.39761247773833
 30
0.0
 40
17.5
 41
0.0
 71
             7
 72
             1
  1
50
  7
CONVERTER_6
 11
0.0
 21
1.0
 31
0.0
  0
ENDBLK
  5
686
100
AcDbEntity
  8
0
100
AcDbBlockEnd
  0
BLOCK
  5
68A
100
AcDbEntity
  8
0
100
AcDbBlockBegin
  2
*D8
 70
             1
 10
0.0
 20
0.0
 30
0.0
  3
*D8
  1

  0
LINE
  5
68B
100
AcDbEntity
  8
0
  6
CONTINUOUS
 62
             7
100
AcDbLine
 10
960.0
 20
1339.9999999999995
 11
960.0
 21
1679.9999999999995
  0
LINE
  5
68C
100
AcDbEntity
  8
0
  6
CONTINUOUS
 62
             7
100
AcDbLine
 10
1185.0
 20
1339.9999999999995
 11
950.0
 21
1339.9999999999995
  0
LINE
  5
68D
100
AcDbEntity
  8
0
  6
CONTINUOUS
 62
             7
100
AcDbLine
 10
1185.0
 20
1679.9999999999995
 11
950.0
 21
1679.9999999999995
  0
LINE
  5
68E
100
AcDbEntity
  8
0
 62
             7
100
AcDbLine
 10
960.0
 20
1339.9999999999995
 11
956.71762239271879
 21
1352.2499999999995
  0
LINE
  5
68F
100
AcDbEntity
  8
0
 62
             7
100
AcDbLine
 10
960.0
 20
1339.9999999999995
 11
963.28237760728121
 21
1352.2499999999995
  0
LINE
  5
690
100
AcDbEntity
  8
0
 62
             7
100
AcDbLine
 10
960.0
 20
1679.9999999999995
 11
963.28237760728121
 21
1667.7499999999995
  0
LINE
  5
691
100
AcDbEntity
  8
0
 62
             7
100
AcDbLine
 10
960.0
 20
1679.9999999999995
 11
956.71762239271879
 21
1667.7499999999995
  0
MTEXT
  5
692
100
AcDbEntity
  8
0
 62
             7
100
AcDbMText
 10
950.0
 20
1487.4291924077904
 30
0.0
 40
17.5
 41
0.0
 71
             7
 72
             1
  1
340
  7
CONVERTER_6
 11
0.0
 21
1.0
 31
0.0
  0
ENDBLK
  5
693
100
AcDbEntity
  8
0
100
AcDbBlockEnd
  0
BLOCK
  5
697
100
AcDbEntity
  8
0
100
AcDbBlockBegin
  2
*D9
 70
             1
 10
0.0
 20
0.0
 30
0.0
  3
*D9
  1

  0
LINE
  5
698
100
AcDbEntity
  8
0
  6
CONTINUOUS
 62
             7
100
AcDbLine
 10
1190.0
 20
1869.96517781283
 11
1570.0
 21
1869.96517781283
  0
LINE
  5
699
100
AcDbEntity
  8
0
  6
CONTINUOUS
 62
             7
100
AcDbLine
 10
1570.0
 20
1685.0
 11
1570.0
 21
1879.96517781283
  0
LINE
  5
69A
100
AcDbEntity
  8
0
  6
CONTINUOUS
 62
             7
100
AcDbLine
 10
1190.0
 20
1725.0
 11
1190.0
 21
1879.96517781283
  0
LINE
  5
69B
100
AcDbEntity
  8
0
 62
             7
100
AcDbLine
 10
1190.0
 20
1869.96517781283
 11
1202.25
 21
1873.2475554201112
  0
LINE
  5
69C
100
AcDbEntity
  8
0
 62
             7
100
AcDbLine
 10
1190.0
 20
1869.96517781283
 11
1202.25
 21
1866.6828002055488
  0
LINE
  5
69D
100
AcDbEntity
  8
0
 62
             7
100
AcDbLine
 10
1570.0
 20
1869.96517781283
 11
1557.75
 21
1866.6828002055488
  0
LINE
  5
69E
100
AcDbEntity
  8
0
 62
             7
100
AcDbLine
 10
1570.0
 20
1869.96517781283
 11
1557.75
 21
1873.2475554201112
  0
MTEXT
  5
69F
100
AcDbEntity
  8
0
 62
             7
100
AcDbMText
 10
1357.6102941176471
 20
1879.96517781283
 30
0.0
 40
17.5
 41
0.0
 71
             7
 72
             1
  1
380
  7
CONVERTER_6
 11
0.99999999999706
 21
0.00000242406841
 31
0.0
  0
ENDBLK
  5
6A0
100
AcDbEntity
  8
0
100
AcDbBlockEnd
  0
BLOCK
  5
6A4
100
AcDbEntity
  8
0
100
AcDbBlockBegin
  2
*D10
 70
             1
 10
0.0
 20
0.0
 30
0.0
  3
*D10
  1

  0
LINE
  5
6A5
100
AcDbEntity
  8
0
  6
CONTINUOUS
 62
             7
100
AcDbLine
 10
1189.4999999999995
 20
324.99999999999989
 11
1164.9999999999995
 21
324.99999999999989
  0
LINE
  5
6A6
100
AcDbEntity
  8
0
  6
CONTINUOUS
 62
             7
100
AcDbLine
 10
1149.9999999999995
 20
324.99999999999989
 11
1164.9999999999995
 21
324.99999999999989
  0
LINE
  5
6A7
100
AcDbEntity
  8
0
  6
CONTINUOUS
 62
             7
100
AcDbLine
 10
1149.9999999999995
 20
324.99999999999989
 11
1111.7471607614393
 21
324.99999999999989
  0
LINE
  5
6A8
100
AcDbEntity
  8
0
  6
CONTINUOUS
 62
             7
100
AcDbLine
 10
1149.9999999999995
 20
469.99999999999989
 11
1149.9999999999995
 21
314.99999999999989
  0
LINE
  5
6A9
100
AcDbEntity
  8
0
  6
CONTINUOUS
 62
             7
100
AcDbLine
 10
1164.9999999999995
 20
462.54186662213567
 11
1164.9999999999995
 21
314.99999999999989
  0
LINE
  5
6AA
100
AcDbEntity
  8
0
 62
             7
100
AcDbLine
 10
1149.9999999999995
 20
324.99999999999989
 11
1137.7499999999995
 21
321.71762239271862
  0
LINE
  5
6AB
100
AcDbEntity
  8
0
 62
             7
100
AcDbLine
 10
1149.9999999999995
 20
324.99999999999989
 11
1137.7499999999995
 21
328.28237760728115
  0
LINE
  5
6AC
100
AcDbEntity
  8
0
 62
             7
100
AcDbLine
 10
1164.9999999999995
 20
324.99999999999989
 11
1177.2499999999995
 21
328.28237760728115
  0
LINE
  5
6AD
100
AcDbEntity
  8
0
 62
             7
100
AcDbLine
 10
1164.9999999999995
 20
324.99999999999989
 11
1177.2499999999995
 21
321.71762239271862
  0
MTEXT
  5
6AE
100
AcDbEntity
  8
0
 62
             7
100
AcDbMText
 10
1111.7471607614393
 20
334.99999999999989
 30
0.0
 40
17.5
 41
0.0
 71
             7
 72
             1
  1
15
  7
CONVERTER_6
 11
0.99999999999706
 21
0.00000242406841
 31
0.0
  0
ENDBLK
  5
6AF
100
AcDbEntity
  8
0
100
AcDbBlockEnd
  0
BLOCK
  5
6B3
100
AcDbEntity
  8
0
100
AcDbBlockBegin
  2
*D11
 70
             1
 10
0.0
 20
0.0
 30
0.0
  3
*D11
  1

  0
LINE
  5
6B4
100
AcDbEntity
  8
0
  6
CONTINUOUS
 62
             7
100
AcDbLine
 10
1165.0
 20
324.99999999999989
 11
1925.0
 21
324.99999999999989
  0
LINE
  5
6B5
100
AcDbEntity
  8
0
  6
CONTINUOUS
 62
             7
100
AcDbLine
 10
1165.0
 20
462.54186662213567
 11
1165.0
 21
314.99999999999989
  0
LINE
  5
6B6
100
AcDbEntity
  8
0
  6
CONTINUOUS
 62
             7
100
AcDbLine
 10
1925.0
 20
464.45724601067997
 11
1925.0
 21
314.99999999999989
  0
LINE
  5
6B7
100
AcDbEntity
  8
0
 62
             7
100
AcDbLine
 10
1165.0
 20
324.99999999999989
 11
1177.25
 21
328.28237760728115
  0
LINE
  5
6B8
100
AcDbEntity
  8
0
 62
             7
100
AcDbLine
 10
1165.0
 20
324.99999999999989
 11
1177.25
 21
321.71762239271862
  0
LINE
  5
6B9
100
AcDbEntity
  8
0
 62
             7
100
AcDbLine
 10
1925.0
 20
324.99999999999989
 11
1912.75
 21
321.71762239271862
  0
LINE
  5
6BA
100
AcDbEntity
  8
0
 62
             7
100
AcDbLine
 10
1925.0
 20
324.99999999999989
 11
1912.75
 21
328.28237760728115
  0
MTEXT
  5
6BB
100
AcDbEntity
  8
0
 62
             7
100
AcDbMText
 10
1518.6897713338649
 20
334.99999999999989
 30
0.0
 40
17.5
 41
0.0
 71
             7
 72
             1
  1
760
  7
CONVERTER_6
 11
0.99999999999706
 21
0.00000242406841
 31
0.0
  0
ENDBLK
  5
6BC
100
AcDbEntity
  8
0
100
AcDbBlockEnd
  0
BLOCK
  5
6C0
100
AcDbEntity
  8
0
100
AcDbBlockBegin
  2
*D12
 70
             1
 10
0.0
 20
0.0
 30
0.0
  3
*D12
  1

  0
LINE
  5
6C1
100
AcDbEntity
  8
0
  6
CONTINUOUS
 62
             7
100
AcDbLine
 10
960.0
 20
474.99999999999989
 11
960.0
 21
830.0
  0
LINE
  5
6C2
100
AcDbEntity
  8
0
  6
CONTINUOUS
 62
             7
100
AcDbLine
 10
1140.0
 20
474.99999999999989
 11
950.0
 21
474.99999999999989
  0
LINE
  5
6C3
100
AcDbEntity
  8
0
  6
CONTINUOUS
 62
             7
100
AcDbLine
 10
1235.0
 20
830.0
 11
950.0
 21
830.0
  0
LINE
  5
6C4
100
AcDbEntity
  8
0
 62
             7
100
AcDbLine
 10
960.0
 20
474.99999999999989
 11
956.71762239271879
 21
487.24999999999989
  0
LINE
  5
6C5
100
AcDbEntity
  8
0
 62
             7
100
AcDbLine
 10
960.0
 20
474.99999999999989
 11
963.28237760728121
 21
487.24999999999989
  0
LINE
  5
6C6
100
AcDbEntity
  8
0
 62
             7
100
AcDbLine
 10
960.0
 20
830.0
 11
963.28237760728121
 21
817.75
  0
LINE
  5
6C7
100
AcDbEntity
  8
0
 62
             7
100
AcDbLine
 10
960.0
 20
830.0
 11
956.71762239271879
 21
817.75
  0
MTEXT
  5
6C8
100
AcDbEntity
  8
0
 62
             7
100
AcDbMText
 10
950.0
 20
652.73340148237719
 30
0.0
 40
17.5
 41
0.0
 71
             7
 72
             1
  1
355
  7
CONVERTER_6
 11
0.0
 21
1.0
 31
0.0
  0
ENDBLK
  5
6C9
100
AcDbEntity
  8
0
100
AcDbBlockEnd
  0
BLOCK
  5
6CD
100
AcDbEntity
  8
0
100
AcDbBlockBegin
  2
*D13
 70
             1
 10
0.0
 20
0.0
 30
0.0
  3
*D13
  1

  0
LINE
  5
6CE
100
AcDbEntity
  8
0
  6
CONTINUOUS
 62
             7
100
AcDbLine
 10
920.0
 20
475.0
 11
920.0
 21
895.0
  0
LINE
  5
6CF
100
AcDbEntity
  8
0
  6
CONTINUOUS
 62
             7
100
AcDbLine
 10
1140.0
 20
475.0
 11
910.0
 21
475.0
  0
LINE
  5
6D0
100
AcDbEntity
  8
0
  6
CONTINUOUS
 62
             7
100
AcDbLine
 10
1180.0
 20
895.0
 11
910.0
 21
895.0
  0
LINE
  5
6D1
100
AcDbEntity
  8
0
 62
             7
100
AcDbLine
 10
920.0
 20
475.0
 11
916.71762239271879
 21
487.25
  0
LINE
  5
6D2
100
AcDbEntity
  8
0
 62
             7
100
AcDbLine
 10
920.0
 20
475.0
 11
923.28237760728121
 21
487.25
  0
LINE
  5
6D3
100
AcDbEntity
  8
0
 62
             7
100
AcDbLine
 10
920.0
 20
895.0
 11
923.28237760728121
 21
882.75
  0
LINE
  5
6D4
100
AcDbEntity
  8
0
 62
             7
100
AcDbLine
 10
920.0
 20
895.0
 11
916.71762239271879
 21
882.75
  0
MTEXT
  5
6D5
100
AcDbEntity
  8
0
 62
             7
100
AcDbMText
 10
910.0
 20
689.58242470904554
 30
0.0
 40
17.5
 41
0.0
 71
             7
 72
             1
  1
420
  7
CONVERTER_6
 11
0.0
 21
1.0
 31
0.0
  0
ENDBLK
  5
6D6
100
AcDbEntity
  8
0
100
AcDbBlockEnd
  0
BLOCK
  5
6DA
100
AcDbEntity
  8
0
100
AcDbBlockBegin
  2
*D14
 70
             1
 10
0.0
 20
0.0
 30
0.0
  3
*D14
  1

  0
LINE
  5
6DB
100
AcDbEntity
  8
0
  6
CONTINUOUS
 62
             7
100
AcDbLine
 10
920.0
 20
1300.0000000000005
 11
920.0
 21
1720.0000000000005
  0
LINE
  5
6DC
100
AcDbEntity
  8
0
  6
CONTINUOUS
 62
             7
100
AcDbLine
 10
1140.0
 20
1300.0000000000005
 11
910.0
 21
1300.0000000000005
  0
LINE
  5
6DD
100
AcDbEntity
  8
0
  6
CONTINUOUS
 62
             7
100
AcDbLine
 10
1140.0
 20
1720.0000000000005
 11
910.0
 21
1720.0000000000005
  0
LINE
  5
6DE
100
AcDbEntity
  8
0
 62
             7
100
AcDbLine
 10
920.0
 20
1300.0000000000005
 11
916.71762239271879
 21
1312.2500000000005
  0
LINE
  5
6DF
100
AcDbEntity
  8
0
 62
             7
100
AcDbLine
 10
920.0
 20
1300.0000000000005
 11
923.28237760728121
 21
1312.2500000000005
  0
LINE
  5
6E0
100
AcDbEntity
  8
0
 62
             7
100
AcDbLine
 10
920.0
 20
1720.0000000000005
 11
923.28237760728121
 21
1707.7500000000005
  0
LINE
  5
6E1
100
AcDbEntity
  8
0
 62
             7
100
AcDbLine
 10
920.0
 20
1720.0000000000005
 11
916.71762239271879
 21
1707.7500000000005
  0
MTEXT
  5
6E2
100
AcDbEntity
  8
0
 62
             7
100
AcDbMText
 10
910.0
 20
1489.9828574356015
 30
0.0
 40
17.5
 41
0.0
 71
             7
 72
             1
  1
420
  7
CONVERTER_6
 11
0.0
 21
1.0
 31
0.0
  0
ENDBLK
  5
6E3
100
AcDbEntity
  8
0
100
AcDbBlockEnd
  0
BLOCK
  5
6E7
100
AcDbEntity
  8
0
100
AcDbBlockBegin
  2
*D15
 70
             1
 10
0.0
 20
0.0
 30
0.0
  3
*D15
  1

  0
LINE
  5
6E8
100
AcDbEntity
  8
0
  6
CONTINUOUS
 62
             7
100
AcDbLine
 10
2090.0
 20
1300.0
 11
2090.0
 21
1615.9985000000011
  0
LINE
  5
6E9
100
AcDbEntity
  8
0
  6
CONTINUOUS
 62
             7
100
AcDbLine
 10
1766.0005000000012
 20
1615.9985000000011
 11
2100.0
 21
1615.9985000000011
  0
LINE
  5
6EA
100
AcDbEntity
  8
0
  6
CONTINUOUS
 62
             7
100
AcDbLine
 10
1950.0
 20
1300.0
 11
2100.0
 21
1300.0
  0
LINE
  5
6EB
100
AcDbEntity
  8
0
 62
             7
100
AcDbLine
 10
2090.0
 20
1300.0
 11
2086.7176223927186
 21
1312.25
  0
LINE
  5
6EC
100
AcDbEntity
  8
0
 62
             7
100
AcDbLine
 10
2090.0
 20
1300.0
 11
2093.2823776072814
 21
1312.25
  0
LINE
  5
6ED
100
AcDbEntity
  8
0
 62
             7
100
AcDbLine
 10
2090.0
 20
1615.9985000000011
 11
2093.2823776072814
 21
1603.7485000000011
  0
LINE
  5
6EE
100
AcDbEntity
  8
0
 62
             7
100
AcDbLine
 10
2090.0
 20
1615.9985000000011
 11
2086.7176223927186
 21
1603.7485000000011
  0
MTEXT
  5
6EF
100
AcDbEntity
  8
0
 62
             7
100
AcDbMText
 10
2080.0
 20
1445.0472164802529
 30
0.0
 40
17.5
 41
0.0
 71
             7
 72
             1
  1
316
  7
CONVERTER_6
 11
0.0
 21
1.0
 31
0.0
  0
ENDBLK
  5
6F0
100
AcDbEntity
  8
0
100
AcDbBlockEnd
  0
BLOCK
  5
6F4
100
AcDbEntity
  8
0
100
AcDbBlockBegin
  2
*D16
 70
             1
 10
0.0
 20
0.0
 30
0.0
  3
*D16
  1

  0
LINE
  5
6F5
100
AcDbEntity
  8
0
  6
CONTINUOUS
 62
             7
100
AcDbLine
 10
1150.0
 20
1910.0
 11
1108.6476742619825
 21
1910.0
  0
LINE
  5
6F6
100
AcDbEntity
  8
0
  6
CONTINUOUS
 62
             7
100
AcDbLine
 10
1150.0
 20
1910.0
 11
1190.0
 21
1910.0
  0
LINE
  5
6F7
100
AcDbEntity
  8
0
  6
CONTINUOUS
 62
             7
100
AcDbLine
 10
1190.0
 20
1729.9999999999998
 11
1190.0
 21
1920.0
  0
LINE
  5
6F8
100
AcDbEntity
  8
0
  6
CONTINUOUS
 62
             7
100
AcDbLine
 10
1150.0
 20
1729.9999999999998
 11
1150.0
 21
1920.0
  0
LINE
  5
6F9
100
AcDbEntity
  8
0
 62
             7
100
AcDbLine
 10
1150.0
 20
1910.0
 11
1162.25
 21
1913.2823776072812
  0
LINE
  5
6FA
100
AcDbEntity
  8
0
 62
             7
100
AcDbLine
 10
1150.0
 20
1910.0
 11
1162.25
 21
1906.7176223927188
  0
LINE
  5
6FB
100
AcDbEntity
  8
0
 62
             7
100
AcDbLine
 10
1190.0
 20
1910.0
 11
1177.75
 21
1906.7176223927188
  0
LINE
  5
6FC
100
AcDbEntity
  8
0
 62
             7
100
AcDbLine
 10
1190.0
 20
1910.0
 11
1177.75
 21
1913.2823776072812
  0
MTEXT
  5
6FD
100
AcDbEntity
  8
0
 62
             7
100
AcDbMText
 10
1108.6476742619825
 20
1920.0
 30
0.0
 40
17.5
 41
0.0
 71
             7
 72
             1
  1
40
  7
CONVERTER_6
 11
0.99999999999706
 21
0.00000242406841
 31
0.0
  0
ENDBLK
  5
6FE
100
AcDbEntity
  8
0
100
AcDbBlockEnd
  0
BLOCK
  5
702
100
AcDbEntity
  8
0
100
AcDbBlockBegin
  2
*D17
 70
             1
 10
0.0
 20
0.0
 30
0.0
  3
*D17
  1

  0
LINE
  5
703
100
AcDbEntity
  8
0
  6
CONTINUOUS
 62
             7
100
AcDbLine
 10
1190.0000000000002
 20
1910.0
 11
1900.0000000000002
 21
1910.0
  0
LINE
  5
704
100
AcDbEntity
  8
0
  6
CONTINUOUS
 62
             7
100
AcDbLine
 10
1900.0000000000002
 20
1729.9999999999998
 11
1900.0000000000002
 21
1920.0
  0
LINE
  5
705
100
AcDbEntity
  8
0
  6
CONTINUOUS
 62
             7
100
AcDbLine
 10
1190.0000000000002
 20
1729.9999999999998
 11
1190.0000000000002
 21
1920.0
  0
LINE
  5
706
100
AcDbEntity
  8
0
 62
             7
100
AcDbLine
 10
1190.0000000000002
 20
1910.0
 11
1202.2500000000002
 21
1913.2823776072812
  0
LINE
  5
707
100
AcDbEntity
  8
0
 62
             7
100
AcDbLine
 10
1190.0000000000002
 20
1910.0
 11
1202.2500000000002
 21
1906.7176223927188
  0
LINE
  5
708
100
AcDbEntity
  8
0
 62
             7
100
AcDbLine
 10
1900.0000000000002
 20
1910.0
 11
1887.7500000000002
 21
1906.7176223927188
  0
LINE
  5
709
100
AcDbEntity
  8
0
 62
             7
100
AcDbLine
 10
1900.0000000000002
 20
1910.0
 11
1887.7500000000002
 21
1913.2823776072812
  0
MTEXT
  5
70A
100
AcDbEntity
  8
0
 62
             7
100
AcDbMText
 10
1521.5498363320567
 20
1920.0
 30
0.0
 40
17.5
 41
0.0
 71
             7
 72
             1
  1
710
  7
CONVERTER_6
 11
0.99999999999706
 21
0.00000242406841
 31
0.0
  0
ENDBLK
  5
70B
100
AcDbEntity
  8
0
100
AcDbBlockEnd
  0
BLOCK
  5
70F
100
AcDbEntity
  8
0
100
AcDbBlockBegin
  2
*D18
 70
             1
 10
0.0
 20
0.0
 30
0.0
  3
*D18
  1

  0
LINE
  5
710
100
AcDbEntity
  8
0
  6
CONTINUOUS
 62
             7
100
AcDbLine
 10
329.99999999999994
 20
284.99999999999989
 11
750.0
 21
284.99999999999989
  0
LINE
  5
711
100
AcDbEntity
  8
0
  6
CONTINUOUS
 62
             7
100
AcDbLine
 10
329.99999999999994
 20
464.99999999999989
 11
329.99999999999994
 21
274.99999999999989
  0
LINE
  5
712
100
AcDbEntity
  8
0
  6
CONTINUOUS
 62
             7
100
AcDbLine
 10
750.0
 20
464.99999999999989
 11
750.0
 21
274.99999999999989
  0
LINE
  5
713
100
AcDbEntity
  8
0
 62
             7
100
AcDbLine
 10
750.0
 20
284.99999999999989
 11
737.75
 21
281.71762239271862
  0
LINE
  5
714
100
AcDbEntity
  8
0
 62
             7
100
AcDbLine
 10
750.0
 20
284.99999999999989
 11
737.75
 21
288.28237760728115
  0
LINE
  5
715
100
AcDbEntity
  8
0
 62
             7
100
AcDbLine
 10
329.99999999999994
 20
284.99999999999989
 11
342.24999999999994
 21
288.28237760728115
  0
LINE
  5
716
100
AcDbEntity
  8
0
 62
             7
100
AcDbLine
 10
329.99999999999994
 20
284.99999999999989
 11
342.24999999999994
 21
281.71762239271862
  0
MTEXT
  5
717
100
AcDbEntity
  8
0
 62
             7
100
AcDbMText
 10
517.55431621303785
 20
294.99999999999989
 30
0.0
 40
17.5
 41
0.0
 71
             7
 72
             1
  1
420
  7
CONVERTER_6
 11
0.99999999999706
 21
0.00000242406841
 31
0.0
  0
ENDBLK
  5
718
100
AcDbEntity
  8
0
100
AcDbBlockEnd
  0
BLOCK
  5
71C
100
AcDbEntity
  8
0
100
AcDbBlockBegin
  2
*D19
 70
             1
 10
0.0
 20
0.0
 30
0.0
  3
*D19
  1

  0
LINE
  5
71D
100
AcDbEntity
  8
0
  6
CONTINUOUS
 62
             7
100
AcDbLine
 10
161.50000000000011
 20
474.99999999999989
 11
161.50000000000011
 21
906.99949999999899
  0
LINE
  5
71E
100
AcDbEntity
  8
0
  6
CONTINUOUS
 62
             7
100
AcDbLine
 10
320.0
 20
474.99999999999989
 11
151.50000000000011
 21
474.99999999999989
  0
LINE
  5
71F
100
AcDbEntity
  8
0
  6
CONTINUOUS
 62
             7
100
AcDbLine
 10
480.00050000000073
 20
906.99949999999899
 11
151.50000000000011
 21
906.99949999999899
  0
LINE
  5
720
100
AcDbEntity
  8
0
 62
             7
100
AcDbLine
 10
161.50000000000011
 20
474.99999999999989
 11
158.21762239271885
 21
487.24999999999989
  0
LINE
  5
721
100
AcDbEntity
  8
0
 62
             7
100
AcDbLine
 10
161.50000000000011
 20
474.99999999999989
 11
164.78237760728138
 21
487.24999999999989
  0
LINE
  5
722
100
AcDbEntity
  8
0
 62
             7
100
AcDbLine
 10
161.50000000000011
 20
906.99949999999899
 11
164.78237760728135
 21
894.74949999999899
  0
LINE
  5
723
100
AcDbEntity
  8
0
 62
             7
100
AcDbLine
 10
161.50000000000011
 20
906.99949999999899
 11
158.21762239271885
 21
894.74949999999899
  0
MTEXT
  5
724
100
AcDbEntity
  8
0
 62
             7
100
AcDbMText
 10
151.50000000000011
 20
672.81773507070261
 30
0.0
 40
17.5
 41
0.0
 71
             7
 72
             1
  1
432
  7
CONVERTER_6
 11
0.0
 21
1.0
 31
0.0
  0
ENDBLK
  5
725
100
AcDbEntity
  8
0
100
AcDbBlockEnd
  0
BLOCK
  5
729
100
AcDbEntity
  8
0
100
AcDbBlockBegin
  2
*D20
 70
             1
 10
0.0
 20
0.0
 30
0.0
  3
*D20
  1

  0
LINE
  5
72A
100
AcDbEntity
  8
0
  6
CONTINUOUS
 62
             7
100
AcDbLine
 10
345.0
 20
324.99999999999989
 11
735.0
 21
324.99999999999989
  0
LINE
  5
72B
100
AcDbEntity
  8
0
  6
CONTINUOUS
 62
             7
100
AcDbLine
 10
735.0
 20
455.72740719588757
 11
735.0
 21
314.99999999999989
  0
LINE
  5
72C
100
AcDbEntity
  8
0
  6
CONTINUOUS
 62
             7
100
AcDbLine
 10
345.0
 20
455.72740719588757
 11
345.0
 21
314.99999999999989
  0
LINE
  5
72D
100
AcDbEntity
  8
0
 62
             7
100
AcDbLine
 10
735.0
 20
324.99999999999989
 11
722.75
 21
321.71762239271862
  0
LINE
  5
72E
100
AcDbEntity
  8
0
 62
             7
100
AcDbLine
 10
735.0
 20
324.99999999999989
 11
722.75
 21
328.28237760728115
  0
LINE
  5
72F
100
AcDbEntity
  8
0
 62
             7
100
AcDbLine
 10
345.0
 20
324.99999999999989
 11
357.25
 21
328.28237760728115
  0
LINE
  5
730
100
AcDbEntity
  8
0
 62
             7
100
AcDbLine
 10
345.0
 20
324.99999999999989
 11
357.25
 21
321.71762239271862
  0
MTEXT
  5
731
100
AcDbEntity
  8
0
 62
             7
100
AcDbMText
 10
531.32618956776912
 20
334.99999999999989
 30
0.0
 40
17.5
 41
0.0
 71
             7
 72
             1
  1
390
  7
CONVERTER_6
 11
0.99999999999706
 21
0.00000242406841
 31
0.0
  0
ENDBLK
  5
732
100
AcDbEntity
  8
0
100
AcDbBlockEnd
  0
BLOCK
  5
736
100
AcDbEntity
  8
0
100
AcDbBlockBegin
  2
*D21
 70
             1
 10
0.0
 20
0.0
 30
0.0
  3
*D21
  1

  0
LINE
  5
737
100
AcDbEntity
  8
0
  6
CONTINUOUS
 62
             7
100
AcDbLine
 10
750.0
 20
324.99999999999989
 11
783.33851988339575
 21
324.99999999999989
  0
LINE
  5
738
100
AcDbEntity
  8
0
  6
CONTINUOUS
 62
             7
100
AcDbLine
 10
735.0
 20
324.99999999999989
 11
750.0
 21
324.99999999999989
  0
LINE
  5
739
100
AcDbEntity
  8
0
  6
CONTINUOUS
 62
             7
100
AcDbLine
 10
710.5
 20
324.99999999999989
 11
735.0
 21
324.99999999999989
  0
LINE
  5
73A
100
AcDbEntity
  8
0
  6
CONTINUOUS
 62
             7
100
AcDbLine
 10
750.0
 20
464.99999999999989
 11
750.0
 21
314.99999999999989
  0
LINE
  5
73B
100
AcDbEntity
  8
0
  6
CONTINUOUS
 62
             7
100
AcDbLine
 10
735.0
 20
455.72740719588757
 11
735.0
 21
314.99999999999989
  0
LINE
  5
73C
100
AcDbEntity
  8
0
 62
             7
100
AcDbLine
 10
750.0
 20
324.99999999999989
 11
762.25
 21
328.28237760728115
  0
LINE
  5
73D
100
AcDbEntity
  8
0
 62
             7
100
AcDbLine
 10
750.0
 20
324.99999999999989
 11
762.25
 21
321.71762239271862
  0
LINE
  5
73E
100
AcDbEntity
  8
0
 62
             7
100
AcDbLine
 10
735.0
 20
324.99999999999989
 11
722.75
 21
321.71762239271862
  0
LINE
  5
73F
100
AcDbEntity
  8
0
 62
             7
100
AcDbLine
 10
735.0
 20
324.99999999999989
 11
722.75
 21
328.28237760728115
  0
MTEXT
  5
740
100
AcDbEntity
  8
0
 62
             7
100
AcDbMText
 10
765.32381400104282
 20
334.99999999999989
 30
0.0
 40
17.5
 41
0.0
 71
             7
 72
             1
  1
15
  7
CONVERTER_6
 11
0.99999999999706
 21
0.00000242406841
 31
0.0
  0
ENDBLK
  5
741
100
AcDbEntity
  8
0
100
AcDbBlockEnd
  0
BLOCK
  5
745
100
AcDbEntity
  8
0
100
AcDbBlockBegin
  2
*D22
 70
             1
 10
0.0
 20
0.0
 30
0.0
  3
*D22
  1

  0
LINE
  5
746
100
AcDbEntity
  8
0
  6
CONTINUOUS
 62
             7
100
AcDbLine
 10
1190.0
 20
1140.0
 11
1710.000500000001
 21
1140.0
  0
LINE
  5
747
100
AcDbEntity
  8
0
  6
CONTINUOUS
 62
             7
100
AcDbLine
 10
1710.000500000001
 20
1375.9990000000021
 11
1710.000500000001
 21
1130.0
  0
LINE
  5
748
100
AcDbEntity
  8
0
  6
CONTINUOUS
 62
             7
100
AcDbLine
 10
1190.0
 20
1290.0
 11
1190.0
 21
1130.0
  0
LINE
  5
749
100
AcDbEntity
  8
0
 62
             7
100
AcDbLine
 10
1190.0
 20
1140.0
 11
1202.25
 21
1143.2823776072812
  0
LINE
  5
74A
100
AcDbEntity
  8
0
 62
             7
100
AcDbLine
 10
1190.0
 20
1140.0
 11
1202.25
 21
1136.7176223927188
  0
LINE
  5
74B
100
AcDbEntity
  8
0
 62
             7
100
AcDbLine
 10
1710.000500000001
 20
1140.0
 11
1697.750500000001
 21
1136.7176223927188
  0
LINE
  5
74C
100
AcDbEntity
  8
0
 62
             7
100
AcDbLine
 10
1710.000500000001
 20
1140.0
 11
1697.750500000001
 21
1143.2823776072812
  0
MTEXT
  5
74D
100
AcDbEntity
  8
0
 62
             7
100
AcDbMText
 10
1446.5279527104365
 20
1150.0
 30
0.0
 40
17.5
 41
0.0
 71
             7
 72
             1
  1
520
  7
CONVERTER_6
 11
0.99999999999706
 21
0.00000242406841
 31
0.0
  0
ENDBLK
  5
74E
100
AcDbEntity
  8
0
100
AcDbBlockEnd
  0
BLOCK
  5
752
100
AcDbEntity
  8
0
100
AcDbBlockBegin
  2
*D23
 70
             1
 10
0.0
 20
0.0
 30
0.0
  3
*D23
  1

  0
LINE
  5
753
100
AcDbEntity
  8
0
  6
CONTINUOUS
 62
             7
100
AcDbLine
 10
1190.0000000000002
 20
1180.0
 11
1270.0000000000002
 21
1180.0
  0
LINE
  5
754
100
AcDbEntity
  8
0
  6
CONTINUOUS
 62
             7
100
AcDbLine
 10
1270.0000000000002
 20
1504.5585000000001
 11
1270.0000000000002
 21
1170.0
  0
LINE
  5
755
100
AcDbEntity
  8
0
  6
CONTINUOUS
 62
             7
100
AcDbLine
 10
1190.0000000000002
 20
1290.0
 11
1190.0000000000002
 21
1170.0
  0
LINE
  5
756
100
AcDbEntity
  8
0
 62
             7
100
AcDbLine
 10
1190.0000000000002
 20
1180.0
 11
1202.2500000000002
 21
1183.2823776072812
  0
LINE
  5
757
100
AcDbEntity
  8
0
 62
             7
100
AcDbLine
 10
1190.0000000000002
 20
1180.0
 11
1202.2500000000002
 21
1176.7176223927188
  0
LINE
  5
758
100
AcDbEntity
  8
0
 62
             7
100
AcDbLine
 10
1270.0000000000002
 20
1180.0
 11
1257.7500000000002
 21
1176.7176223927188
  0
LINE
  5
759
100
AcDbEntity
  8
0
 62
             7
100
AcDbLine
 10
1270.0000000000002
 20
1180.0
 11
1257.7500000000002
 21
1183.2823776072812
  0
MTEXT
  5
75A
100
AcDbEntity
  8
0
 62
             7
100
AcDbMText
 10
1217.5488749394142
 20
1190.0
 30
0.0
 40
17.5
 41
0.0
 71
             7
 72
             1
  1
80
  7
CONVERTER_6
 11
0.99999999999706
 21
0.00000242406841
 31
0.0
  0
ENDBLK
  5
75B
100
AcDbEntity
  8
0
100
AcDbBlockEnd
  0
BLOCK
  5
75F
100
AcDbEntity
  8
0
100
AcDbBlockBegin
  2
*D24
 70
             1
 10
0.0
 20
0.0
 30
0.0
  3
*D24
  1

  0
LINE
  5
760
100
AcDbEntity
  8
0
  6
CONTINUOUS
 62
             7
100
AcDbLine
 10
2050.0
 20
474.99999999999989
 11
2050.0
 21
433.63862162630346
  0
LINE
  5
761
100
AcDbEntity
  8
0
  6
CONTINUOUS
 62
             7
100
AcDbLine
 10
2050.0
 20
474.99999999999989
 11
2050.0
 21
514.99999999999989
  0
LINE
  5
762
100
AcDbEntity
  8
0
  6
CONTINUOUS
 62
             7
100
AcDbLine
 10
1913.1999999999991
 20
514.99999999999989
 11
2060.0
 21
514.99999999999989
  0
LINE
  5
763
100
AcDbEntity
  8
0
  6
CONTINUOUS
 62
             7
100
AcDbLine
 10
1950.0000000000002
 20
474.99999999999989
 11
2060.0
 21
474.99999999999989
  0
LINE
  5
764
100
AcDbEntity
  8
0
 62
             7
100
AcDbLine
 10
2050.0
 20
474.99999999999989
 11
2046.7176223927188
 21
487.24999999999989
  0
LINE
  5
765
100
AcDbEntity
  8
0
 62
             7
100
AcDbLine
 10
2050.0
 20
474.99999999999989
 11
2053.2823776072814
 21
487.24999999999989
  0
LINE
  5
766
100
AcDbEntity
  8
0
 62
             7
100
AcDbLine
 10
2050.0
 20
514.99999999999989
 11
2053.2823776072814
 21
502.74999999999989
  0
LINE
  5
767
100
AcDbEntity
  8
0
 62
             7
100
AcDbLine
 10
2050.0
 20
514.99999999999989
 11
2046.7176223927188
 21
502.74999999999989
  0
MTEXT
  5
768
100
AcDbEntity
  8
0
 62
             7
100
AcDbMText
 10
2040.0
 20
433.6386216263034
 30
0.0
 40
17.5
 41
0.0
 71
             7
 72
             1
  1
40
  7
CONVERTER_6
 11
0.0
 21
1.0
 31
0.0
  0
ENDBLK
  5
769
100
AcDbEntity
  8
0
100
AcDbBlockEnd
  0
BLOCK
  5
76D
100
AcDbEntity
  8
0
100
AcDbBlockBegin
  2
*D25
 70
             1
 10
0.0
 20
0.0
 30
0.0
  3
*D25
  1

  0
LINE
  5
76E
100
AcDbEntity
  8
0
  6
CONTINUOUS
 62
             7
100
AcDbLine
 10
2090.0
 20
474.99999999999989
 11
2090.0
 21
973.99999999999955
  0
LINE
  5
76F
100
AcDbEntity
  8
0
  6
CONTINUOUS
 62
             7
100
AcDbLine
 10
1763.0005000000012
 20
973.99999999999955
 11
2100.0
 21
973.99999999999955
  0
LINE
  5
770
100
AcDbEntity
  8
0
  6
CONTINUOUS
 62
             7
100
AcDbLine
 10
1950.0000000000002
 20
474.99999999999989
 11
2100.0
 21
474.99999999999989
  0
LINE
  5
771
100
AcDbEntity
  8
0
 62
             7
100
AcDbLine
 10
2090.0
 20
474.99999999999989
 11
2086.7176223927186
 21
487.24999999999989
  0
LINE
  5
772
100
AcDbEntity
  8
0
 62
             7
100
AcDbLine
 10
2090.0
 20
474.99999999999989
 11
2093.2823776072814
 21
487.24999999999989
  0
LINE
  5
773
100
AcDbEntity
  8
0
 62
             7
100
AcDbLine
 10
2090.0
 20
973.99999999999955
 11
2093.2823776072814
 21
961.74999999999955
  0
LINE
  5
774
100
AcDbEntity
  8
0
 62
             7
100
AcDbLine
 10
2090.0
 20
973.99999999999955
 11
2086.7176223927186
 21
961.74999999999955
  0
MTEXT
  5
775
100
AcDbEntity
  8
0
 62
             7
100
AcDbMText
 10
2080.0
 20
708.32538444992917
 30
0.0
 40
17.5
 41
0.0
 71
             7
 72
             1
  1
499
  7
CONVERTER_6
 11
0.0
 21
1.0
 31
0.0
  0
ENDBLK
  5
776
100
AcDbEntity
  8
0
100
AcDbBlockEnd
  0
ENDSEC
  0
SECTION
  2
ENTITIES
  0
DIMENSION
  5
778
100
AcDbEntity
  8
1
100
AcDbDimension
  2
*D25
 10
2090.0
 20
474.99999999999989
 11
2071.25
 21
729.42832562639978
 31
0.0
 53
90.0
  1
<>
  3
ME10_DIM_24
100
AcDbAlignedDimension
 13
1753.000500000001
 23
973.99999999999955
 14
1940.0
 24
474.99999999999989
 50
90.0
100
AcDbRotatedDimension
  0
DIMENSION
  5
76B
100
AcDbEntity
  8
1
100
AcDbDimension
  2
*D24
 10
2050.0
 20
474.99999999999989
 11
2031.25
 21
448.05038633218578
 31
0.0
 53
90.0
  1
<>
  3
ME10_DIM_23
100
AcDbAlignedDimension
 13
1903.1999999999989
 23
515.0
 14
1940.0
 24
474.99999999999989
 50
90.0
100
AcDbRotatedDimension
  0
DIMENSION
  5
75D
100
AcDbEntity
  8
1
100
AcDbDimension
  2
*D23
 10
1190.0000000000002
 20
1180.0
 11
1231.70328670412
 21
1198.75
 31
0.0
 53
0.00013888888889
  1
<>
  3
ME10_DIM_22
100
AcDbAlignedDimension
 13
1270.0
 23
1514.5585000000001
 14
1190.0
 24
1300.0
100
AcDbRotatedDimension
  0
DIMENSION
  5
750
100
AcDbEntity
  8
1
100
AcDbDimension
  2
*D22
 10
1190.0
 20
1140.0
 11
1468.1455997692599
 21
1158.75
 31
0.0
 53
0.00013888888889
  1
<>
  3
ME10_DIM_21
100
AcDbAlignedDimension
 13
1710.000500000001
 23
1385.9990000000021
 14
1190.0
 24
1300.0
100
AcDbRotatedDimension
  0
DIMENSION
  5
743
100
AcDbEntity
  8
1
100
AcDbDimension
  2
*D21
 10
750.0
 20
324.99999999999989
 11
774.33116694221928
 21
343.74999999999989
 31
0.0
 53
0.00013888888889
  1
<>
  3
ME10_DIM_20
100
AcDbAlignedDimension
 13
735.0
 23
465.72740719588762
 14
750.0
 24
474.99999999999989
100
AcDbRotatedDimension
  0
DIMENSION
  5
734
100
AcDbEntity
  8
1
100
AcDbDimension
  2
*D20
 10
735.0
 20
324.99999999999989
 11
552.68648368541619
 21
343.74999999999989
 31
0.0
 53
0.00013888888889
  1
<>
  3
ME10_DIM_19
100
AcDbAlignedDimension
 13
345.0
 23
465.72740719588762
 14
735.0
 24
465.72740719588762
100
AcDbRotatedDimension
  0
DIMENSION
  5
727
100
AcDbEntity
  8
1
100
AcDbDimension
  2
*D19
 10
161.50000000000011
 20
474.99999999999989
 11
142.75000000000011
 21
695.464793894232
 31
0.0
 53
90.0
  1
<>
  3
ME10_DIM_18
100
AcDbAlignedDimension
 13
490.00050000000061
 23
906.99949999999899
 14
330.0
 24
474.99999999999989
 50
90.0
100
AcDbRotatedDimension
  0
DIMENSION
  5
71A
100
AcDbEntity
  8
1
100
AcDbDimension
  2
*D18
 10
750.0
 20
284.99999999999989
 11
540.20137503656724
 21
303.74999999999989
 31
0.0
 53
0.00013888888889
  1
<>
  3
ME10_DIM_17
100
AcDbAlignedDimension
 13
330.0
 23
474.99999999999989
 14
750.0
 24
474.99999999999989
100
AcDbRotatedDimension
  0
DIMENSION
  5
70D
100
AcDbEntity
  8
1
100
AcDbDimension
  2
*D17
 10
1190.0000000000002
 20
1910.0
 11
1538.7924833908801
 21
1928.75
 31
0.0
 53
0.00013888888889
  1
<>
  3
ME10_DIM_16
100
AcDbAlignedDimension
 13
1900.0
 23
1720.0
 14
1190.0
 24
1720.0
100
AcDbRotatedDimension
  0
DIMENSION
  5
700
100
AcDbEntity
  8
1
100
AcDbDimension
  2
*D16
 10
1150.0
 20
1910.0
 11
1123.0594389678649
 21
1928.75
 31
0.0
 53
0.00013888888889
  1
<>
  3
ME10_DIM_15
100
AcDbAlignedDimension
 13
1190.0
 23
1720.0
 14
1150.0
 24
1720.0
100
AcDbRotatedDimension
  0
DIMENSION
  5
6F2
100
AcDbEntity
  8
1
100
AcDbDimension
  2
*D15
 10
2090.0
 20
1300.0
 11
2071.25
 21
1462.0325105979
 31
0.0
 53
90.0
  1
<>
  3
ME10_DIM_14
100
AcDbAlignedDimension
 13
1756.000500000001
 23
1615.9985000000011
 14
1940.0
 24
1300.0
 50
90.0
100
AcDbRotatedDimension
  0
DIMENSION
  5
6E5
100
AcDbEntity
  8
1
100
AcDbDimension
  2
*D14
 10
920.0
 20
1300.0000000000005
 11
901.25
 21
1512.6299162591311
 31
0.0
 53
90.0
  1
<>
  3
ME10_DIM_13
100
AcDbAlignedDimension
 13
1150.0
 23
1720.0
 14
1150.0
 24
1300.0
 50
90.0
100
AcDbRotatedDimension
  0
DIMENSION
  5
6D8
100
AcDbEntity
  8
1
100
AcDbDimension
  2
*D13
 10
920.0
 20
475.0
 11
901.25
 21
712.22948353257493
 31
0.0
 53
90.0
  1
<>
  3
ME10_DIM_12
100
AcDbAlignedDimension
 13
1190.0
 23
895.0
 14
1150.0
 24
474.99999999999989
 50
90.0
100
AcDbRotatedDimension
  0
DIMENSION
  5
6CB
100
AcDbEntity
  8
1
100
AcDbDimension
  2
*D12
 10
960.0
 20
474.99999999999989
 11
941.25
 21
673.8363426588478
 31
0.0
 53
90.0
  1
<>
  3
ME10_DIM_11
100
AcDbAlignedDimension
 13
1245.0
 23
830.0
 14
1150.0
 24
474.99999999999989
 50
90.0
100
AcDbRotatedDimension
  0
DIMENSION
  5
6BE
100
AcDbEntity
  8
0
100
AcDbDimension
  2
*D11
 10
1165.0
 20
324.99999999999989
 11
1539.535359569159
 21
343.74999999999989
 31
0.0
 53
0.00013888888889
  1
<>
  3
ME10_DIM_10
100
AcDbAlignedDimension
 13
1925.0
 23
469.45724601068002
 14
1165.0
 24
467.54186662213567
100
AcDbRotatedDimension
  0
DIMENSION
  5
6B1
100
AcDbEntity
  8
0
100
AcDbDimension
  2
*D10
 10
1149.9999999999995
 20
324.99999999999989
 11
1120.7545137026159
 21
343.74999999999989
 31
0.0
 53
0.00013888888889
  1
<>
  3
ME10_DIM_9
100
AcDbAlignedDimension
 13
1165.0
 23
467.54186662213567
 14
1150.0
 24
474.99999999999989
100
AcDbRotatedDimension
  0
DIMENSION
  5
6A2
100
AcDbEntity
  8
0
100
AcDbDimension
  2
*D9
 10
1190.0
 20
1869.96517781283
 11
1380.0
 21
1888.71517781283
 31
0.0
 53
0.00013888888889
  1
<>
  3
ME10_DIM_8
100
AcDbAlignedDimension
 13
1570.0
 23
1680.0
 14
1190.0
 24
1720.0
100
AcDbRotatedDimension
  0
DIMENSION
  5
695
100
AcDbEntity
  8
0
100
AcDbDimension
  2
*D8
 10
960.0
 20
1339.9999999999995
 11
941.25
 21
1510.0762512313199
 31
0.0
 53
90.0
  1
<>
  3
ME10_DIM_7
100
AcDbAlignedDimension
 13
1190.0
 23
1680.0
 14
1190.0
 24
1340.0
 50
90.0
100
AcDbRotatedDimension
  0
DIMENSION
  5
688
100
AcDbEntity
  8
1
100
AcDbDimension
  2
*D7
 10
1000.0
 20
830.0
 11
981.25
 21
804.7799654189148
 31
0.0
 53
90.0
  1
<>
  3
ME10_DIM_6
100
AcDbAlignedDimension
 13
1245.0
 23
780.0
 14
1245.0
 24
830.0
 50
90.0
100
AcDbRotatedDimension
  0
DIMENSION
  5
67B
100
AcDbEntity
  8
1
100
AcDbDimension
  2
*D6
 10
1000.0
 20
1340.0
 11
981.25
 21
1440.0
 31
0.0
 53
90.0
  1
<>
  3
ME10_DIM_5
100
AcDbAlignedDimension
 13
1245.77
 23
1540.0
 14
1190.0
 24
1340.0
 50
90.0
100
AcDbRotatedDimension
  0
DIMENSION
  5
66E
100
AcDbEntity
  8
1
100
AcDbDimension
  2
*D5
 10
1000.0
 20
1540.0
 11
981.25
 21
1590.0
 31
0.0
 53
90.0
  1
<>
  3
ME10_DIM_4
100
AcDbAlignedDimension
 13
1243.77
 23
1640.0
 14
1245.77
 24
1540.0
 50
90.0
100
AcDbRotatedDimension
  0
DIMENSION
  5
661
100
AcDbEntity
  8
1
100
AcDbDimension
  2
*D4
 10
1000.0
 20
1299.9999999999998
 11
981.25
 21
1279.82137431962
 31
0.0
 53
90.0
  1
<>
  3
ME10_DIM_3
100
AcDbAlignedDimension
 13
1190.0
 23
1340.0
 14
1150.0
 24
1300.0
 50
90.0
100
AcDbRotatedDimension
  0
DIMENSION
  5
653
100
AcDbEntity
  8
1
100
AcDbDimension
  2
*D3
 10
2129.2716960790499
 20
1299.9999999999998
 11
2110.5216960790499
 21
1507.3118473427
 31
0.0
 53
90.0
  1
(425)
  3
ME10_DIM_2
100
AcDbAlignedDimension
 13
1740.000500000001
 23
1722.9990000000021
 14
1940.0
 24
1300.0
 50
90.0
100
AcDbRotatedDimension
  0
DIMENSION
  5
646
100
AcDbEntity
  8
0
100
AcDbDimension
  2
*D2
 10
1149.9999999999998
 20
284.99999999999989
 11
1539.535359569159
 21
303.74999999999989
 31
0.0
 53
0.00013888888889
  1
<>
  3
ME10_DIM_1
100
AcDbAlignedDimension
 13
1940.0
 23
474.99999999999989
 14
1150.0
 24
474.99999999999989
100
AcDbRotatedDimension
  0
DIMENSION
  5
639
100
AcDbEntity
  8
0
100
AcDbDimension
  2
*D0
 10
880.0
 20
474.99999999999994
 11
861.25
 21
754.08515535836682
 31
0.0
 53
90.0
  1
(535)
  3
ME10_DIM_0
100
AcDbAlignedDimension
 13
1675.000500000001
 23
1006.000000000001
 14
1150.0
 24
474.99999999999989
 50
90.0
100
AcDbRotatedDimension
  0
TEXT
  5
625
100
AcDbEntity
  8
0
 62
             7
100
AcDbText
 10
1025.0
 20
784.99999999999989
 40
17.5
  1
下限油面 25L
 41
0.712
  7
CONVERTER_3
100
AcDbText
  0
TEXT
  5
624
100
AcDbEntity
  8
0
 62
             7
100
AcDbText
 10
1025.0
 20
835.0
 40
17.5
  1
上限油面 30L
 41
0.712
  7
CONVERTER_3
100
AcDbText
  0
TEXT
  5
623
100
AcDbEntity
  8
1
 62
             7
100
AcDbText
 10
1835.7580259637839
 20
1127.314135891183
 40
17.5
  1
（右回転で流量減少）
 41
0.712
  7
CONVERTER_3
100
AcDbText
  0
TEXT
  5
622
100
AcDbEntity
  8
1
 62
             7
100
AcDbText
 10
1872.5275516185759
 20
1213.3746881154209
 40
17.5
  1
（右回転で圧力上昇）
 41
0.712
  7
CONVERTER_3
100
AcDbText
  0
TEXT
  5
621
100
AcDbEntity
  8
1
 62
             7
100
AcDbText
 10
1323.6928416905459
 20
410.00000000000011
 40
17.5
  1
Rc3/8 排油口
 41
0.712
  7
CONVERTER_3
100
AcDbText
  0
MTEXT
  5
620
100
AcDbEntity
  8
1
 62
             7
100
AcDbMText
 10
1053.2352959393861
 20
410.00000000000011
 30
0.0
 40
17.5
 41
0.0
 71
             9
 72
             1
  1
4-φ15穴
  7
CONVERTER_3
  0
MTEXT
  5
61F
100
AcDbEntity
  8
0
 62
             7
100
AcDbMText
 10
1121.114854176345
 20
1044.9728264912069
 30
0.0
 40
17.5
 41
0.0
 71
             9
 72
             1
  1
4-アイボルト
  7
CONVERTER_3
  0
MTEXT
  5
61E
100
AcDbEntity
  8
1
 62
             7
100
AcDbMText
 10
1089.151203356844
 20
1185.0
 30
0.0
 40
17.5
 41
0.0
 71
             9
 72
             1
  1
給油口
  7
CONVERTER_3
  0
MTEXT
  5
61D
100
AcDbEntity
  8
1
 62
             7
100
AcDbMText
 10
1828.20267916131
 20
1875.0
 30
0.0
 40
17.5
 41
0.0
 71
             9
 72
             1
  1
注油口
  7
CONVERTER_3
  0
MTEXT
  5
61C
100
AcDbEntity
  8
0
 62
             7
100
AcDbMText
 10
1736.4992227339469
 20
758.92199940969158
 30
0.0
 40
17.5
 41
0.0
 71
             9
 72
             1
  1
配線
  7
CONVERTER_3
  0
MTEXT
  5
61B
100
AcDbEntity
  8
0
 62
             7
100
AcDbMText
 10
1727.2
 20
1228.6668475157001
 30
0.0
 40
17.5
 41
0.0
 71
             1
 72
             1
  1
空気
  7
CONVERTER_3
 11
0.0
 21
1.0
 31
0.0
  0
MTEXT
  5
61A
100
AcDbEntity
  8
1
 62
             7
100
AcDbMText
 10
1626.9440673973399
 20
1826.0005000000001
 30
0.0
 40
17.5
 41
0.0
 71
             5
 72
             1
  1
1
  7
CONVERTER_2
  0
MTEXT
  5
619
100
AcDbEntity
  8
1
 62
             7
100
AcDbMText
 10
1124.151203356844
 20
1180.0
 30
0.0
 40
17.5
 41
0.0
 71
             5
 72
             1
  1
6
  7
CONVERTER_2
  0
MTEXT
  5
618
100
AcDbEntity
  8
1
 62
             7
100
AcDbMText
 10
1313.36527444065
 20
1079.0995
 30
0.0
 40
17.5
 41
0.0
 71
             5
 72
             1
  1
5
  7
CONVERTER_2
  0
MTEXT
  5
617
100
AcDbEntity
  8
0
 62
             7
100
AcDbMText
 10
577.49741562334611
 20
1079.0995
 30
0.0
 40
15.0
 41
0.0
 71
             5
 72
             1
  1
7
  7
CONVERTER_1
  0
MTEXT
  5
616
100
AcDbEntity
  8
1
 62
             7
100
AcDbMText
 10
1623.83779204041
 20
1079.0995
 30
0.0
 40
15.0
 41
0.0
 71
             5
 72
             1
  1
3
  7
CONVERTER_1
  0
MTEXT
  5
615
100
AcDbEntity
  8
1
 62
             7
100
AcDbMText
 10
1679.4736192610501
 20
1826.0005000000001
 30
0.0
 40
17.5
 41
0.0
 71
             5
 72
             1
  1
4
  7
CONVERTER_2
  0
TEXT
  5
614
100
AcDbEntity
  8
1
 62
             7
100
AcDbText
 10
1872.5275516185759
 20
1238.3746881154209
 40
17.5
  1
圧力調整ネジ
 41
0.712
  7
CONVERTER_3
100
AcDbText
  0
TEXT
  5
613
100
AcDbEntity
  8
1
 62
             7
100
AcDbText
 10
1835.7580259637839
 20
1152.314135891183
 40
17.5
  1
流量調整ネジ
 41
0.712
  7
CONVERTER_3
100
AcDbText
  0
MTEXT
  5
612
100
AcDbEntity
  8
0
 62
             7
100
AcDbMText
 10
633.48711444367325
 20
1079.0995
 30
0.0
 40
15.0
 41
0.0
 71
             5
 72
             1
  1
9
  7
CONVERTER_1
  0
TEXT
  5
611
100
AcDbEntity
  8
0
 62
             7
100
AcDbText
 10
1036.9553390941901
 20
1555.0
 40
17.5
  1
T1
 41
0.856
  7
CONVERTER_2
100
AcDbText
  0
TEXT
  5
60A
100
AcDbEntity
  8
0
 62
             7
100
AcDbText
 10
186.83684594575999
 20
921.99949999999899
 40
17.5
  1
T1
 41
0.856
  7
CONVERTER_2
100
AcDbText
  0
MTEXT
  5
603
100
AcDbEntity
  8
0
 62
             7
100
AcDbMText
 10
1736.4992227339469
 20
733.92199940969158
 30
0.0
 40
17.5
 41
0.0
 71
             9
 72
             1
  1
取出方向
  7
CONVERTER_3
  0
TEXT
  5
602
100
AcDbEntity
  8
0
 62
             7
100
AcDbText
 10
234.987557397686
 20
921.99949999999899
 40
17.5
  1
T2
 41
0.856
  7
CONVERTER_2
100
AcDbText
  0
MTEXT
  5
5FB
100
AcDbEntity
  8
0
 62
             7
100
AcDbMText
 10
2034.6472437606201
 20
988.99999999999977
 30
0.0
 40
17.5
 41
0.0
 71
             9
 72
             1
  1
P
  7
CONVERTER_2
  0
TEXT
  5
5F4
100
AcDbEntity
  8
0
 62
             7
100
AcDbText
 10
1036.9553390941901
 20
1651.5635327064099
 40
17.5
  1
T2
 41
0.856
  7
CONVERTER_2
100
AcDbText
  0
MTEXT
  5
5ED
100
AcDbEntity
  8
1
 62
             7
100
AcDbMText
 10
2023.8067079447981
 20
1630.9985000000011
 30
0.0
 40
17.5
 41
0.0
 71
             9
 72
             1
  1
P
  7
CONVERTER_2
  0
MTEXT
  5
5E6
100
AcDbEntity
  8
1
 62
             7
100
AcDbMText
 10
1362.36431871016
 20
789.99622516927843
 30
0.0
 40
20.0
 41
0.0
 71
             5
 72
             1
  1
PL
  7
CONVERTER_2
  0
MTEXT
  5
5E5
100
AcDbEntity
  8
1
 62
             7
100
AcDbMText
 10
2122.5313529486252
 20
141.374869189717
 30
0.0
 40
12.5
 41
0.0
 71
             9
 72
             1
  1
(K.Hamada)
  7
CONVERTER_1
  0
MTEXT
  5
5E4
100
AcDbEntity
  8
1
 62
             7
100
AcDbMText
 10
2122.5313529486252
 20
181.374869189717
 30
0.0
 40
12.5
 41
0.0
 71
             9
 72
             1
  1
須藤
  7
CONVERTER_4
  0
MTEXT
  5
5E3
100
AcDbEntity
  8
1
 62
             7
100
AcDbMText
 10
2122.5313529486252
 20
221.374869189717
 30
0.0
 40
12.5
 41
0.0
 71
             9
 72
             1
  1
鈴木
  7
CONVERTER_4
  0
MTEXT
  5
5E2
100
AcDbEntity
  8
5
 62
             7
100
AcDbMText
 10
2501.9396359694601
 20
441.875
 30
0.0
 40
11.25
 41
0.0
 71
             9
 72
             1
  1
N = ---- r/min
  7
CONVERTER_1
  0
MTEXT
  5
5E1
100
AcDbEntity
  8
5
 62
             7
100
AcDbMText
 10
2501.9401359694598
 20
406.875
 30
0.0
 40
11.25
 41
0.0
 71
             9
 72
             1
  1
-- L/min
  7
CONVERTER_1
  0
MTEXT
  5
5E0
100
AcDbEntity
  8
5
 62
             7
100
AcDbMText
 10
2314.8791601989501
 20
406.875
 30
0.0
 40
11.25
 41
0.0
 71
             9
 72
             1
  1
C.O = --- MPa
  7
CONVERTER_1
  0
MTEXT
  5
5DF
100
AcDbEntity
  8
5
 62
             7
100
AcDbMText
 10
2314.8796601989488
 20
371.875
 30
0.0
 40
11.25
 41
0.0
 71
             9
 72
             1
  1
F.C.O = --- MPa
  7
CONVERTER_1
  0
MTEXT
  5
5DE
100
AcDbEntity
  8
5
 62
             7
100
AcDbMText
 10
2903.8763873749649
 20
333.93451252596651
 30
0.0
 40
12.5
 41
0.0
 71
             6
 72
             1
  1
Y22-90D(マンセル2.5Y9/2)
  7
CONVERTER_4
  0
MTEXT
  5
5DD
100
AcDbEntity
  8
5
 62
             7
100
AcDbMText
 10
2500.0
 20
120.0
 30
0.0
 40
20.0
 41
0.0
 71
             9
 72
             1
  1
殿仕向
  7
CONVERTER_4
  0
MTEXT
  5
5DC
100
AcDbEntity
  8
5
 62
             7
100
AcDbMText
 10
2475.0
 20
190.0
 30
0.0
 40
20.0
 41
0.0
 71
             9
 72
             1
  1
殿
  7
CONVERTER_4
  0
TEXT
  5
5DB
100
AcDbEntity
  8
1
 62
             7
100
AcDbText
 10
2575.0
 20
95.0
 40
20.0
  1
UH2
 41
1.07
  7
CONVERTER_1
100
AcDbText
  0
TEXT
  5
5DA
100
AcDbEntity
  8
0
 62
             7
100
AcDbText
 10
2030.608166761851
 20
63.49694460308455
 40
12.5
  1
1/5
 41
1.07
  7
CONVERTER_1
100
AcDbText
  0
MTEXT
  5
5D9
100
AcDbEntity
  8
0
 62
             7
100
AcDbMText
 10
2884.9965000000002
 20
370.0
 30
0.0
 40
12.5
 41
0.0
 71
             9
 72
             1
  1
150kg
  7
CONVERTER_1
  0
MTEXT
  5
5D8
100
AcDbEntity
  8
5
 62
             7
100
AcDbMText
 10
2717.5
 20
192.5
 30
0.0
 40
17.5
 41
0.0
 71
             5
 72
             1
  1
YP37-B-3-5.5-22
  7
CONVERTER_1
  0
TEXT
  5
5D7
100
AcDbEntity
  8
5
 62
             7
100
AcDbText
 10
2575.0
 20
65.0
 40
20.0
  1
UA2-50500G-9
 41
1.07
  7
CONVERTER_1
100
AcDbText
  0
MTEXT
  5
5D6
100
AcDbEntity
  8
5
 62
             7
100
AcDbMText
 10
2717.5
 20
222.5
 30
0.0
 40
17.5
 41
0.0
 71
             5
 72
             1
  1
YP パック
  7
CONVERTER_4
  0
TEXT
  5
5D5
100
AcDbEntity
  8
5
 62
             7
100
AcDbText
 10
2652.2761334502902
 20
477.95200000000023
 40
14.0
  1
Q'TY
 41
0.642
  7
CONVERTER_5
100
AcDbText
  0
TEXT
  5
5D3
100
AcDbEntity
  8
5
 62
             7
100
AcDbText
 10
2131.460239046176
 20
478.24949999999939
 40
14.0
  1
ITEM
 41
0.856
  7
CONVERTER_2
100
AcDbText
  0
TEXT
  5
5D2
100
AcDbEntity
  8
5
 62
             7
100
AcDbText
 10
2223.471936209326
 20
477.96849999999949
 40
14.0
  1
PART NAME
 41
1.07
  7
CONVERTER_1
100
AcDbText
  0
TEXT
  5
5D1
100
AcDbEntity
  8
5
 62
             7
100
AcDbText
 10
2461.8349812533202
 20
477.96849999999949
 40
14.0
  1
MODEL NO.
 41
1.07
  7
CONVERTER_1
100
AcDbText
  0
TEXT
  5
5D0
100
AcDbEntity
  8
5
 62
             7
100
AcDbText
 10
2748.21348125332
 20
477.96849999999949
 40
14.0
  1
REMARKS
 41
1.07
  7
CONVERTER_1
100
AcDbText
  0
MTEXT
  5
5CF
100
AcDbEntity
  8
5
 62
             7
100
AcDbMText
 10
1891.423900288147
 20
63.42487845011991
 30
0.0
 40
8.5
 41
0.0
 71
             7
 72
             1
  1
1
  7
CONVERTER_1
 11
0.0
 21
1.0
 31
0.0
  0
TEXT
  5
5CE
100
AcDbEntity
  8
5
 62
             7
100
AcDbText
 10
1933.741
 20
240.00350000000029
 40
11.25
  1
APPROVED
 41
1.07
  7
CONVERTER_1
100
AcDbText
  0
TEXT
  5
5CD
100
AcDbEntity
  8
5
 62
             7
100
AcDbText
 10
1933.741
 20
200.0040000000001
 40
11.25
  1
CHECKED
 41
1.07
  7
CONVERTER_1
100
AcDbText
  0
TEXT
  5
5CC
100
AcDbEntity
  8
5
 62
             7
100
AcDbText
 10
1933.741
 20
160.0040000000001
 40
11.25
  1
DRAWN
 41
1.07
  7
CONVERTER_1
100
AcDbText
  0
TEXT
  5
5CB
100
AcDbEntity
  8
5
 62
             7
100
AcDbText
 10
1933.741
 20
120.0040000000002
 40
11.25
  1
DATE
 41
1.07
  7
CONVERTER_1
100
AcDbText
  0
TEXT
  5
5CA
100
AcDbEntity
  8
5
 62
             7
100
AcDbText
 10
1933.741
 20
80.00400000000015
 40
11.25
  1
SCALE
 41
1.07
  7
CONVERTER_1
100
AcDbText
  0
TEXT
  5
5C9
100
AcDbEntity
  8
5
 62
             7
100
AcDbText
 10
2528.7420000000002
 20
450.00350000000032
 40
11.25
  1
MOTOR POWER SOURCE
 41
1.07
  7
CONVERTER_1
100
AcDbText
  0
TEXT
  5
5C8
100
AcDbEntity
  8
5
 62
             7
100
AcDbText
 10
2160.6150000000011
 20
153.73500000000041
 40
16.875
  1
FOR
 41
1.07
  7
CONVERTER_1
100
AcDbText
  0
MTEXT
  5
5C7
100
AcDbEntity
  8
5
 62
             7
100
AcDbMText
 10
1925.4559999999999
 20
95.0924999999995
 30
0.0
 40
15.75
 41
0.0
 71
             7
 72
             1
  1
REVISIONS
  7
CONVERTER_1
 11
0.0
 21
1.0
 31
0.0
  0
TEXT
  5
5C6
100
AcDbEntity
  8
5
 62
             7
100
AcDbText
 10
2528.7420000000002
 20
415.00350000000032
 40
11.25
  1
CONTROL POWER SOURCE
 41
1.07
  7
CONVERTER_1
100
AcDbText
  0
TEXT
  5
5C5
100
AcDbEntity
  8
5
 62
             7
100
AcDbText
 10
2528.7420000000002
 20
380.00350000000032
 40
11.25
  1
APPROX MASS
 41
1.07
  7
CONVERTER_1
100
AcDbText
  0
TEXT
  5
5C4
100
AcDbEntity
  8
5
 62
             7
100
AcDbText
 10
2528.7420000000002
 20
345.00350000000032
 40
11.25
  1
PAINT COLOUR
 41
1.07
  7
CONVERTER_1
100
AcDbText
  0
TEXT
  5
5C3
100
AcDbEntity
  8
5
 62
             7
100
AcDbText
 10
2528.7420000000002
 20
310.00350000000032
 40
11.25
  1
HYDRAULIC FLUID
 41
1.07
  7
CONVERTER_1
100
AcDbText
  0
TEXT
  5
5C2
100
AcDbEntity
  8
5
 62
             7
100
AcDbText
 10
2133.7400000000011
 20
450.00350000000032
 40
11.25
  1
SPECIFICATIONS
 41
1.07
  7
CONVERTER_1
100
AcDbText
  0
TEXT
  5
5C1
100
AcDbEntity
  8
5
 62
             7
100
AcDbText
 10
2133.7400000000011
 20
310.00350000000032
 40
11.25
  1
WORKING PRESSURE
 41
1.07
  7
CONVERTER_1
100
AcDbText
  0
TEXT
  5
5C0
100
AcDbEntity
  8
5
 62
             7
100
AcDbText
 10
2133.7400000000011
 20
275.00350000000032
 40
11.25
  1
TEST PRESSURE
 41
1.07
  7
CONVERTER_1
100
AcDbText
  0
TEXT
  5
5BF
100
AcDbEntity
  8
5
 62
             7
100
AcDbText
 10
2135.6150000000011
 20
232.50549999999981
 40
16.875
  1
CUSTOMER
 41
1.07
  7
CONVERTER_1
100
AcDbText
  0
TEXT
  5
5BE
100
AcDbEntity
  8
5
 62
             7
100
AcDbText
 10
2530.6154999999999
 20
232.50549999999981
 40
16.875
  1
TITLE
 41
1.07
  7
CONVERTER_1
100
AcDbText
  0
MTEXT
  5
5BD
100
AcDbEntity
  8
5
 62
             7
100
AcDbMText
 10
2139.7831362522361
 20
67.9740000000004
 30
0.0
 40
18.5
 41
0.0
 71
             7
 72
             1
  1
YUKEN KOGYO CO.,LTD.
  7
CONVERTER_1
 11
1.0
 21
0.0
 31
0.0
  0
TEXT
  5
5BC
100
AcDbEntity
  8
5
 62
             7
100
AcDbText
 10
2528.7424999999989
 20
127.5040000000002
 40
11.25
  1
DRAWING NO.
 41
1.07
  7
CONVERTER_1
100
AcDbText
  0
MTEXT
  5
5BB
100
AcDbEntity
  8
5
 62
             7
100
AcDbMText
 10
1851.423900288147
 20
63.42487845011991
 30
0.0
 40
8.5
 41
0.0
 71
             7
 72
             1
  1
2
  7
CONVERTER_1
 11
0.0
 21
1.0
 31
0.0
  0
MTEXT
  5
5BA
100
AcDbEntity
  8
5
 62
             7
100
AcDbMText
 10
2884.9965000000002
 20
300.0
 30
0.0
 40
12.5
 41
0.0
 71
             9
 72
             1
  1
鉱物油
  7
CONVERTER_4
  0
MTEXT
  5
5B9
100
AcDbEntity
  8
5
 62
             7
100
AcDbMText
 10
2489.1531313978699
 20
301.87500000000011
 30
0.0
 40
11.25
 41
0.0
 71
             9
 72
             1
  1
--- MPa
  7
CONVERTER_1
  0
MTEXT
  5
5B8
100
AcDbEntity
  8
5
 62
             7
100
AcDbMText
 10
2489.15363139787
 20
266.87500000000011
 30
0.0
 40
11.25
 41
0.0
 71
             9
 72
             1
  1
--- MPa
  7
CONVERTER_1
  0
MTEXT
  5
5B7
100
AcDbEntity
  8
5
 62
             7
100
AcDbMText
 10
2900.0882322795592
 20
398.85184757491987
 30
0.0
 40
11.25
 41
0.0
 71
             9
 72
             1
  1
AC---V,--Hz,1φ
  7
CONVERTER_4
  0
MTEXT
  5
5B6
100
AcDbEntity
  8
5
 62
             7
100
AcDbMText
 10
2899.231577898574
 20
435.23458438875252
 30
0.0
 40
11.25
 41
0.0
 71
             9
 72
             1
  1
AC200/200.220V.50/60Hz.3φ
  7
CONVERTER_4
  0
MTEXT
  5
5B4
100
AcDbEntity
  8
5
 62
             7
100
AcDbMText
 10
2114.9960000000001
 20
100.22451257623599
 30
0.0
 40
12.5
 41
0.0
 71
             9
 72
             1
  1
'06.07.25
  7
CONVERTER_1
  0
MTEXT
  5
5B3
100
AcDbEntity
  8
0
 62
             7
100
AcDbMText
 10
1462.870405810974
 20
818.57601287121634
 30
0.0
 40
17.5
 41
0.0
 71
             5
 72
             1
  1
銘板
  7
CONVERTER_3
  0
MTEXT
  5
5B2
100
AcDbEntity
  8
0
 62
             7
100
AcDbMText
 10
1462.870405810974
 20
838.57601287121634
 30
0.0
 40
17.5
 41
0.0
 71
             5
 72
             1
  1
ユニット
  7
CONVERTER_3
  0
TEXT
  5
5B1
100
AcDbEntity
  8
5
 62
             7
100
AcDbText
 10
2771.5932622910968
 20
1910.4501153846161
 40
16.00000000000001
  1
T2
 41
0.856
  7
CONVERTER_2
100
AcDbText
  0
TEXT
  5
5AA
100
AcDbEntity
  8
5
 62
             7
100
AcDbText
 10
2759.8456240391679
 20
1945.5793153846159
 40
16.00000000000001
  1
Rc3/4
 41
0.856
  7
CONVERTER_2
100
AcDbText
  0
TEXT
  5
5A9
100
AcDbEntity
  8
5
 62
             7
100
AcDbText
 10
2758.1238270711028
 20
1777.444818937553
 40
12.0
  1
20A
 41
0.856
  7
CONVERTER_2
100
AcDbText
  0
MTEXT
  5
5A8
100
AcDbEntity
  8
5
 62
             7
100
AcDbMText
 10
2539.8809283258852
 20
1411.6968432626791
 30
0.0
 40
12.0
 41
0.0
 71
             6
 72
             1
  1
φ16
  7
CONVERTER_3
  0
TEXT
  5
5A7
100
AcDbEntity
  8
5
 62
             7
100
AcDbText
 10
2557.1136221515349
 20
1425.3690999999999
 40
16.00000000000001
  1
30Wx2P 1φ
 41
0.712
  7
CONVERTER_3
100
AcDbText
  0
MTEXT
  5
5A6
100
AcDbEntity
  8
510
 62
             7
100
AcDbMText
 10
2636.399227526204
 20
1559.145886951592
 30
0.0
 40
12.0
 41
0.0
 71
             5
 72
             1
  1
3
  7
CONVERTER_1
  0
TEXT
  5
5A5
100
AcDbEntity
  8
5
 62
             7
100
AcDbText
 10
2321.5368221515359
 20
1610.2155
 40
12.0
  1
O
 41
1.07
  7
CONVERTER_1
100
AcDbText
  0
TEXT
  5
5A4
100
AcDbEntity
  8
5
 62
             7
100
AcDbText
 10
2321.5368221515359
 20
1638.1727000000001
 40
12.0
  1
M
 41
1.07
  7
CONVERTER_1
100
AcDbText
  0
TEXT
  5
5A3
100
AcDbEntity
  8
5
 62
             7
100
AcDbText
 10
2303.741622151535
 20
1942.379315384615
 40
16.00000000000001
  1
Rc3/4
 41
0.856
  7
CONVERTER_2
100
AcDbText
  0
TEXT
  5
5A2
100
AcDbEntity
  8
5
 62
             7
100
AcDbText
 10
2360.611622151534
 20
1908.4501153846161
 40
16.00000000000001
  1
P
 41
0.856
  7
CONVERTER_2
100
AcDbText
  0
TEXT
  5
59B
100
AcDbEntity
  8
5
 62
             7
100
AcDbText
 10
2669.9754067669201
 20
1910.4501153846161
 40
16.00000000000001
  1
T1
 41
0.856
  7
CONVERTER_2
100
AcDbText
  0
TEXT
  5
594
100
AcDbEntity
  8
5
 62
             7
100
AcDbText
 10
2658.2277685149911
 20
1945.5793153846159
 40
16.00000000000001
  1
Rc3/4
 41
0.856
  7
CONVERTER_2
100
AcDbText
  0
TEXT
  5
593
100
AcDbEntity
  8
5
 62
             7
100
AcDbText
 10
2743.6862833457722
 20
1389.6722641153119
 40
16.00000000000001
  1
30L
 41
0.856
  7
CONVERTER_2
100
AcDbText
  0
TEXT
  5
592
100
AcDbEntity
  8
5
 62
             7
100
AcDbText
 10
2433.5136221515349
 20
1578.1691000000001
 40
16.00000000000001
  1
5.5kWx4P 3φ
 41
0.712
  7
CONVERTER_3
100
AcDbText
  0
TEXT
  5
591
100
AcDbEntity
  8
5
 62
             7
100
AcDbText
 10
2431.671195317585
 20
1538.619537618275
 40
12.0
  1
φ16
 41
0.712
  7
CONVERTER_3
100
AcDbText
  0
MTEXT
  5
58F
100
AcDbEntity
  8
510
 62
             7
100
AcDbMText
 10
2281.7697794729752
 20
1661.977393299592
 30
0.0
 40
12.0
 41
0.0
 71
             5
 72
             1
  1
1
  7
CONVERTER_1
  0
MTEXT
  5
58E
100
AcDbEntity
  8
510
 62
             7
100
AcDbMText
 10
2272.1874979769759
 20
1815.908997303593
 30
0.0
 40
12.0
 41
0.0
 71
             5
 72
             1
  1
4
  7
CONVERTER_1
  0
MTEXT
  5
58D
100
AcDbEntity
  8
510
 62
             7
100
AcDbMText
 10
2785.4856072962698
 20
1563.5655097555921
 30
0.0
 40
12.0
 41
0.0
 71
             5
 72
             1
  1
6
  7
CONVERTER_1
  0
MTEXT
  5
58C
100
AcDbEntity
  8
510
 62
             7
100
AcDbMText
 10
2341.9176066209739
 20
1427.959522207592
 30
0.0
 40
12.0
 41
0.0
 71
             5
 72
             1
  1
7
  7
CONVERTER_1
  0
MTEXT
  5
58B
100
AcDbEntity
  8
510
 62
             7
100
AcDbMText
 10
2270.443632008974
 20
1460.7674140515919
 30
0.0
 40
12.0
 41
0.0
 71
             5
 72
             1
  1
5
  7
CONVERTER_1
  0
MTEXT
  5
58A
100
AcDbEntity
  8
510
 62
             7
100
AcDbMText
 10
2719.3864214123591
 20
1409.955561023593
 30
0.0
 40
12.0
 41
0.0
 71
             5
 72
             1
  1
9
  7
CONVERTER_1
  0
MTEXT
  5
589
100
AcDbEntity
  8
5
 62
             7
100
AcDbMText
 10
2387.097705603373
 20
1518.3371490452189
 30
0.0
 40
12.0
 41
0.0
 71
             6
 72
             1
  1
32A
  7
CONVERTER_2
  0
TEXT
  5
588
100
AcDbEntity
  8
5
 62
             7
100
AcDbText
 10
2656.505971546926
 20
1777.444818937553
 40
12.0
  1
20A
 41
0.856
  7
CONVERTER_2
100
AcDbText
  0
MTEXT
  5
586
100
AcDbEntity
  8
1
 62
             7
100
AcDbMText
 10
2910.356396475272
 20
50.08730809243956
 30
0.0
 40
20.0
 41
0.0
 71
             3
 72
             1
  1
50500G-9.UA2
  7
CONVERTER_1
  0
LEADER
  5
584
100
AcDbEntity
  8
0
  6
CONTINUOUS
 62
             2
100
AcDbLeader
  3
Standard
 71
             0
 73
             3
 74
             0
 75
             0
 40
0.0
 76
             2
 10
1722.2
 20
1275.687692747
 30
0.0
 10
1722.2
 20
1223.6668475157001
 30
0.0
 77
             2
  0
LEADER
  5
581
100
AcDbEntity
  8
1
  6
CONTINUOUS
 62
             7
100
AcDbLeader
  3
Standard
 71
             0
 73
             3
 74
             0
 75
             0
 40
0.0
 76
             2
 10
1670.000500000001
 20
1659.9990000000021
 30
0.0
 10
1633.220717565822
 20
1801.801250783082
 30
0.0
 77
             7
  0
LEADER
  5
57E
100
AcDbEntity
  8
1
  6
CONTINUOUS
 62
             7
100
AcDbLeader
  3
Standard
 71
             0
 73
             3
 74
             0
 75
             0
 40
0.0
 76
             3
 10
1797.216588751952
 20
1636.5183523155949
 30
0.0
 10
1868.5990920065949
 20
1870.0
 30
0.0
 10
1773.7508400275301
 20
1870.0
 30
0.0
 77
             7
  0
LEADER
  5
57B
100
AcDbEntity
  8
1
  6
CONTINUOUS
 62
             7
100
AcDbLeader
  3
Standard
 71
             0
 73
             3
 74
             0
 75
             0
 40
0.0
 76
             2
 10
1250.9360048003821
 20
1371.244961936743
 30
0.0
 10
1137.9649679942479
 20
1200.8369841038091
 30
0.0
 77
             7
  0
LEADER
  5
578
100
AcDbEntity
  8
1
  6
CONTINUOUS
 62
             7
100
AcDbLeader
  3
Standard
 71
             0
 73
             3
 74
             0
 75
             0
 40
0.0
 76
             2
 10
1260.0
 20
855.0
 30
0.0
 10
1307.5740265902871
 20
1054.780019565475
 30
0.0
 77
             7
  0
LEADER
  5
575
100
AcDbEntity
  8
1
  6
CONTINUOUS
 62
             7
100
AcDbLeader
  3
Standard
 71
             0
 73
             3
 74
             0
 75
             0
 40
0.0
 76
             3
 10
1196.8499999999999
 20
926.11621408168639
 30
0.0
 10
1131.114854176345
 20
1039.9728264912069
 30
0.0
 10
1002.674333331114
 20
1039.9728264912069
 30
0.0
 77
             7
  0
LEADER
  5
572
100
AcDbEntity
  8
1
  6
CONTINUOUS
 62
             7
100
AcDbLeader
  3
Standard
 71
             0
 73
             3
 74
             0
 75
             0
 40
0.0
 76
             4
 10
1164.9999999999991
 20
478.19999999999982
 30
0.0
 10
1132.748667822033
 20
534.06094594401861
 30
0.0
 10
1058.2352959393861
 20
405.00000000000011
 30
0.0
 10
950.51134619638231
 20
405.00000000000011
 30
0.0
 77
             7
  0
LEADER
  5
56F
100
AcDbEntity
  8
1
  6
CONTINUOUS
 62
             7
100
AcDbLeader
  3
Standard
 71
             0
 73
             3
 74
             0
 75
             0
 40
0.0
 76
             3
 10
1247.851963660979
 20
527.70000000000005
 30
0.0
 10
1318.6928416905459
 20
405.00000000000011
 30
0.0
 10
1462.6941016092469
 20
405.00000000000011
 30
0.0
 77
             7
  0
LEADER
  5
56C
100
AcDbEntity
  8
0
  6
CONTINUOUS
 62
             7
100
AcDbLeader
  3
Standard
 71
             0
 73
             3
 74
             0
 75
             0
 40
0.0
 76
             2
 10
1654.6675629098399
 20
673.20004200000108
 30
0.0
 10
1625.7311934781569
 20
1054.1713024920471
 30
0.0
 77
             7
  0
LEADER
  5
569
100
AcDbEntity
  8
1
  6
CONTINUOUS
 62
             7
100
AcDbLeader
  3
Standard
 71
             0
 73
             3
 74
             0
 75
             0
 40
0.0
 76
             3
 10
1646.9079772881121
 20
1590.4990000000021
 30
0.0
 10
1867.5275516185759
 20
1208.3746881154209
 30
0.0
 10
2043.9362111408659
 20
1208.3746881154209
 30
0.0
 77
             7
  0
LEADER
  5
566
100
AcDbEntity
  8
1
  6
CONTINUOUS
 62
             7
100
AcDbLeader
  3
Standard
 71
             0
 73
             3
 74
             0
 75
             0
 40
0.0
 76
             3
 10
1645.6085359377821
 20
1558.4990000000021
 30
0.0
 10
1830.7580259637839
 20
1122.314135891183
 30
0.0
 10
2004.966685486072
 20
1122.314135891183
 30
0.0
 77
             7
  0
LEADER
  5
563
100
AcDbEntity
  8
1
  6
CONTINUOUS
 62
             7
100
AcDbLeader
  3
Standard
 71
             0
 73
             3
 74
             0
 75
             0
 40
0.0
 76
             2
 10
1706.2440021212731
 20
1687.440985588971
 30
0.0
 10
1684.2160408251
 20
1801.4544323371581
 30
0.0
 77
             7
  0
LEADER
  5
560
100
AcDbEntity
  8
0
  6
CONTINUOUS
 62
             7
100
AcDbLeader
  3
Standard
 71
             0
 73
             3
 74
             0
 75
             0
 40
0.0
 76
             2
 10
553.31982430840969
 20
617.76357533967234
 30
0.0
 10
576.18901671727247
 20
1054.1337616311359
 30
0.0
 77
             7
  0
LEADER
  5
55D
100
AcDbEntity
  8
0
  6
CONTINUOUS
 62
             7
100
AcDbLeader
  3
Standard
 71
             0
 73
             3
 74
             0
 75
             0
 40
0.0
 76
             2
 10
591.95932791572989
 20
843.58371925511005
 30
0.0
 10
629.14591000199994
 20
1054.479306174695
 30
0.0
 77
             7
  0
ARC
  5
55A
100
AcDbEntity
  8
0
  6
CONTINUOUS
 62
             2
100
AcDbCircle
 10
695.09941885474814
 20
916.59999999999991
 40
36.43514786576246
100
AcDbArc
 50
2.51687565694011
 51
92.51687565694012
  0
ARC
  5
559
100
AcDbEntity
  8
0
  6
DOT_CENTER
 62
             1
100
AcDbCircle
 10
695.09941885474814
 20
916.59999999999991
 40
28.44503471609729
100
AcDbArc
 50
33.70811230140104
 51
93.22452260652045
  0
ARC
  5
558
100
AcDbEntity
  8
0
  6
DOT_CENTER
 62
             1
100
AcDbCircle
 10
1586.5
 20
904.0
 40
30.0
100
AcDbArc
 50
0.0
 51
90.0
  0
ARC
  5
557
100
AcDbEntity
  8
0
  6
CONTINUOUS
 62
             2
100
AcDbCircle
 10
1586.5
 20
904.0
 40
38.0
100
AcDbArc
 50
0.0
 51
90.0
  0
ARC
  5
556
100
AcDbEntity
  8
0
  6
CONTINUOUS
 62
             2
100
AcDbCircle
 10
1586.5
 20
904.0
 40
22.0
100
AcDbArc
 50
0.0
 51
90.0
  0
ARC
  5
555
100
AcDbEntity
  8
0
  6
DOT_CENTER
 62
             1
100
AcDbCircle
 10
693.49874403239164
 20
904.0
 40
29.99999999999983
100
AcDbArc
 50
0.00046606943165
 51
90.0
  0
ARC
  5
554
100
AcDbEntity
  8
0
  6
CONTINUOUS
 62
             2
100
AcDbCircle
 10
693.49874403239164
 20
904.0
 40
37.99999999999984
100
AcDbArc
 50
0.00046606943192
 51
90.0
  0
ARC
  5
553
100
AcDbEntity
  8
0
  6
CONTINUOUS
 62
             2
100
AcDbCircle
 10
693.49874403239164
 20
904.0
 40
21.99999999999981
100
AcDbArc
 50
0.00046606943117
 51
90.0
  0
ARC
  5
552
100
AcDbEntity
  8
0
  6
CONTINUOUS
 62
             2
100
AcDbCircle
 10
1783.5
 20
924.99999999999977
 40
28.0
100
AcDbArc
 50
0.0
 51
90.0
  0
ARC
  5
551
100
AcDbEntity
  8
0
  6
CONTINUOUS
 62
             2
100
AcDbCircle
 10
1783.5
 20
924.99999999999977
 40
12.0
100
AcDbArc
 50
0.0
 51
90.0
  0
ARC
  5
550
100
AcDbEntity
  8
0
  6
DOT_CENTER
 62
             1
100
AcDbCircle
 10
1783.5
 20
924.99999999999977
 40
20.0
100
AcDbArc
 50
0.0
 51
90.0
  0
CIRCLE
  5
54F
100
AcDbEntity
  8
1
  6
CONTINUOUS
 62
             7
100
AcDbCircle
 10
1626.9440673973399
 20
1826.0005000000001
 40
25.0
  0
CIRCLE
  5
54E
100
AcDbEntity
  8
1
  6
CONTINUOUS
 62
             7
100
AcDbCircle
 10
1124.151203356844
 20
1180.0
 40
25.0
  0
CIRCLE
  5
54D
100
AcDbEntity
  8
1
  6
CONTINUOUS
 62
             7
100
AcDbCircle
 10
1313.36527444065
 20
1079.0999999999999
 40
25.0
  0
CIRCLE
  5
54C
100
AcDbEntity
  8
0
  6
CONTINUOUS
 62
             7
100
AcDbCircle
 10
577.49741562334611
 20
1079.0995
 40
25.0
  0
CIRCLE
  5
54B
100
AcDbEntity
  8
1
  6
CONTINUOUS
 62
             7
100
AcDbCircle
 10
1623.83779204041
 20
1079.0999999999999
 40
25.0
  0
CIRCLE
  5
54A
100
AcDbEntity
  8
1
  6
CONTINUOUS
 62
             7
100
AcDbCircle
 10
1679.4736192610501
 20
1826.0005000000001
 40
25.0
  0
CIRCLE
  5
549
100
AcDbEntity
  8
0
  6
CONTINUOUS
 62
             7
100
AcDbCircle
 10
633.48711444367325
 20
1079.0995
 40
25.0
  0
CIRCLE
  5
548
100
AcDbEntity
  8
1
  6
CONTINUOUS
 62
             2
100
AcDbCircle
 10
1269.999
 20
1400.0
 40
34.5
  0
CIRCLE
  5
547
100
AcDbEntity
  8
0
  6
CONTINUOUS
 62
             2
100
AcDbCircle
 10
1269.999
 20
1400.0
 40
28.00049999999987
  0
CIRCLE
  5
546
100
AcDbEntity
  8
0
  6
CONTINUOUS
 62
             2
100
AcDbCircle
 10
1270.0
 20
1540.0
 40
19.9994999999999
  0
CIRCLE
  5
545
100
AcDbEntity
  8
0
  6
CONTINUOUS
 62
             2
100
AcDbCircle
 10
1270.0
 20
1540.0
 40
14.0
  0
CIRCLE
  5
544
100
AcDbEntity
  8
0
  6
CONTINUOUS
 62
             2
100
AcDbCircle
 10
1270.0
 20
1640.0
 40
14.0
  0
CIRCLE
  5
543
100
AcDbEntity
  8
0
  6
CONTINUOUS
 62
             2
100
AcDbCircle
 10
1270.0
 20
1640.0
 40
19.9994999999999
  0
CIRCLE
  5
542
100
AcDbEntity
  8
0
  6
CONTINUOUS
 62
             2
100
AcDbCircle
 10
1205.0
 20
912.0
 40
10.0
  0
CIRCLE
  5
541
100
AcDbEntity
  8
0
  6
CONTINUOUS
 62
             2
100
AcDbCircle
 10
1239.9989999999989
 20
541.29999999999927
 40
15.0
  0
CIRCLE
  5
540
100
AcDbEntity
  8
1
  6
CONTINUOUS
 62
             2
100
AcDbCircle
 10
1240.0
 20
541.29999999999927
 40
9.0
  0
CIRCLE
  5
53F
100
AcDbEntity
  8
0
  6
CONTINUOUS
 62
             2
100
AcDbCircle
 10
1165.0
 20
1705.000000000002
 40
7.5
  0
CIRCLE
  5
53E
100
AcDbEntity
  8
0
  6
CONTINUOUS
 62
             2
100
AcDbCircle
 10
1165.0
 20
1315.0
 40
7.5
  0
CIRCLE
  5
53D
100
AcDbEntity
  8
0
  6
CONTINUOUS
 62
             2
100
AcDbCircle
 10
1925.0
 20
1315.0000000000009
 40
7.5
  0
CIRCLE
  5
53C
100
AcDbEntity
  8
0
  6
CONTINUOUS
 62
             2
100
AcDbCircle
 10
1925.0
 20
1705.000000000002
 40
7.5
  0
CIRCLE
  5
53B
100
AcDbEntity
  8
0
  6
CONTINUOUS
 62
             2
100
AcDbCircle
 10
1710.000500000001
 20
1615.9985000000011
 40
11.75
  0
CIRCLE
  5
53A
100
AcDbEntity
  8
CSLAYER1
  6
CONTINUOUS
 62
             2
100
AcDbCircle
 10
1616.500500000001
 20
1344.0
 40
4.25
  0
CIRCLE
  5
539
100
AcDbEntity
  8
0
  6
CONTINUOUS
 62
             2
100
AcDbCircle
 10
1250.0
 20
765.0
 40
10.0
  0
CIRCLE
  5
538
100
AcDbEntity
  8
0
  6
CONTINUOUS
 62
             2
100
AcDbCircle
 10
1250.0
 20
845.0
 40
10.0
  0
CIRCLE
  5
537
100
AcDbEntity
  8
1
  6
CONTINUOUS
 62
             2
100
AcDbCircle
 10
1710.0
 20
1668.0005000000001
 40
19.79999999999905
  0
CIRCLE
  5
536
100
AcDbEntity
  8
CSLAYER1
  6
DOTTED
 62
             3
100
AcDbCircle
 10
1710.0
 20
597.1000219999994
 40
73.0
  0
CIRCLE
  5
535
100
AcDbEntity
  8
520
  6
CONTINUOUS
 62
             7
100
AcDbCircle
 10
2636.399227526204
 20
1559.145886951592
 40
20.0
  0
CIRCLE
  5
534
100
AcDbEntity
  8
0
  6
CONTINUOUS
 62
             2
100
AcDbCircle
 10
2616.5358943112219
 20
1489.8777080077641
 40
20.0
  0
CIRCLE
  5
533
100
AcDbEntity
  8
0
  6
CONTINUOUS
 62
             2
100
AcDbCircle
 10
2272.8192221515351
 20
1772.939100000001
 40
16.0
  0
CIRCLE
  5
532
100
AcDbEntity
  8
0
  6
CONTINUOUS
 62
             2
100
AcDbCircle
 10
2396.7340221515351
 20
1772.9386999999999
 40
1.59999999999991
  0
CIRCLE
  5
531
100
AcDbEntity
  8
0
  6
CONTINUOUS
 62
             2
100
AcDbCircle
 10
2396.7340221515351
 20
1772.9386999999999
 40
2.39999999999873
  0
CIRCLE
  5
530
100
AcDbEntity
  8
0
  6
CONTINUOUS
 62
             2
100
AcDbCircle
 10
2396.7340221515351
 20
1772.9386999999999
 40
0.79999999999973
  0
CIRCLE
  5
52F
100
AcDbEntity
  8
0
  6
CONTINUOUS
 62
             2
100
AcDbCircle
 10
2269.3768221515338
 20
1414.7079000000001
 40
15.0
  0
CIRCLE
  5
52E
100
AcDbEntity
  8
0
  6
CONTINUOUS
 62
             2
100
AcDbCircle
 10
2487.502052920765
 20
1668.9206999999999
 40
20.0003999999999
  0
CIRCLE
  5
52D
100
AcDbEntity
  8
0
  6
CONTINUOUS
 62
             2
100
AcDbCircle
 10
2396.7340221515351
 20
1668.9210999999989
 40
19.99959999999874
  0
CIRCLE
  5
52C
100
AcDbEntity
  8
520
  6
CONTINUOUS
 62
             7
100
AcDbCircle
 10
2281.7697794729752
 20
1661.977393299592
 40
20.00000000000091
  0
CIRCLE
  5
52B
100
AcDbEntity
  8
520
  6
CONTINUOUS
 62
             7
100
AcDbCircle
 10
2272.1874979769759
 20
1815.908997303593
 40
20.0
  0
CIRCLE
  5
52A
100
AcDbEntity
  8
520
  6
CONTINUOUS
 62
             7
100
AcDbCircle
 10
2785.4856072962698
 20
1563.5655097555921
 40
20.0
  0
CIRCLE
  5
529
100
AcDbEntity
  8
520
  6
CONTINUOUS
 62
             7
100
AcDbCircle
 10
2341.9176066209739
 20
1427.959522207592
 40
20.0
  0
CIRCLE
  5
528
100
AcDbEntity
  8
520
  6
CONTINUOUS
 62
             7
100
AcDbCircle
 10
2270.443632008974
 20
1460.7674140515919
 40
20.0
  0
CIRCLE
  5
527
100
AcDbEntity
  8
520
  6
CONTINUOUS
 62
             7
100
AcDbCircle
 10
2719.3864214123591
 20
1409.955561023593
 40
20.0
  0
CIRCLE
  5
526
100
AcDbEntity
  8
1
  6
CONTINUOUS
 62
             2
100
AcDbCircle
 10
1794.000500000001
 20
1625.9990000000021
 40
11.0
  0
ARC
  5
525
100
AcDbEntity
  8
0
  6
CONTINUOUS
 62
             2
100
AcDbCircle
 10
1803.500500000001
 20
1316.0
 40
8.00000000000023
100
AcDbArc
 50
-172.99964329941605
 51
7.00035670061305
  0
ARC
  5
524
100
AcDbEntity
  8
0
  6
CONTINUOUS
 62
             2
100
AcDbCircle
 10
660.0005000000001
 20
934.0
 40
17.3200000000006
100
AcDbArc
 50
-13.35282506080842
 51
0.0
  0
ARC
  5
523
100
AcDbEntity
  8
1
  6
CONTINUOUS
 62
             2
100
AcDbCircle
 10
690.00000000000045
 20
925.14999999999964
 40
3.150000000001
100
AcDbArc
 50
0.0
 51
180.0
  0
ARC
  5
522
100
AcDbEntity
  8
1
  6
CONTINUOUS
 62
             2
100
AcDbCircle
 10
390.00000000000051
 20
925.14999999999964
 40
3.14999999999867
100
AcDbArc
 50
0.0
 51
180.0
  0
ARC
  5
521
100
AcDbEntity
  8
1
  6
CONTINUOUS
 62
             2
100
AcDbCircle
 10
1205.0
 20
912.0
 40
16.29999999999834
100
AcDbArc
 50
-60.60900173923059
 51
-38.73849591857867
  0
ARC
  5
520
100
AcDbEntity
  8
1
  6
CONTINUOUS
 62
             2
100
AcDbCircle
 10
1205.0
 20
912.0
 40
16.29999999999984
100
AcDbArc
 50
-141.26150408142132
 51
-119.39099826076941
  0
ARC
  5
51F
100
AcDbEntity
  8
1
  6
CONTINUOUS
 62
             2
100
AcDbCircle
 10
1205.0
 20
912.0
 40
16.29999999999984
100
AcDbArc
 50
-38.73849591857867
 51
-141.26150408142132
  0
ARC
  5
51E
100
AcDbEntity
  8
1
  6
CONTINUOUS
 62
             2
100
AcDbCircle
 10
1205.0
 20
1360.0
 40
7.99999999999998
100
AcDbArc
 50
23.1880375421662
 51
156.8119624578338
  0
ARC
  5
51D
100
AcDbEntity
  8
1
  6
CONTINUOUS
 62
             2
100
AcDbCircle
 10
1205.0
 20
1360.0
 40
8.00000000000174
100
AcDbArc
 50
-156.81196245782505
 51
-23.18803754217497
  0
ARC
  5
51C
100
AcDbEntity
  8
1
  6
CONTINUOUS
 62
             2
100
AcDbCircle
 10
1191.8499999999999
 20
1360.0
 40
3.15000000000009
100
AcDbArc
 50
90.0
 51
-90.0
  0
ARC
  5
51B
100
AcDbEntity
  8
1
  6
CONTINUOUS
 62
             2
100
AcDbCircle
 10
1218.150000000001
 20
1360.0
 40
3.15000000000191
100
AcDbArc
 50
-90.0
 51
90.0
  0
ARC
  5
51A
100
AcDbEntity
  8
1
  6
CONTINUOUS
 62
             2
100
AcDbCircle
 10
1218.150000000001
 20
1660.0
 40
3.15000000000191
100
AcDbArc
 50
-90.0
 51
90.0
  0
ARC
  5
519
100
AcDbEntity
  8
1
  6
CONTINUOUS
 62
             2
100
AcDbCircle
 10
1191.8499999999999
 20
1660.0
 40
3.15000000000009
100
AcDbArc
 50
90.0
 51
-90.0
  0
ARC
  5
518
100
AcDbEntity
  8
1
  6
CONTINUOUS
 62
             2
100
AcDbCircle
 10
1205.0
 20
1660.0
 40
8.00000000000102
100
AcDbArc
 50
23.188037542163
 51
156.81196245783701
  0
ARC
  5
517
100
AcDbEntity
  8
1
  6
CONTINUOUS
 62
             2
100
AcDbCircle
 10
1205.0
 20
1660.0
 40
8.00000000000069
100
AcDbArc
 50
-156.81196245782183
 51
-23.18803754217818
  0
ARC
  5
516
100
AcDbEntity
  8
0
  6
CONTINUOUS
 62
             2
100
AcDbCircle
 10
1771.001
 20
944.99999999999977
 40
17.3199999999998
100
AcDbArc
 50
26.93261883534468
 51
-127.31780476670569
  0
ARC
  5
515
100
AcDbEntity
  8
0
  6
CONTINUOUS
 62
             2
100
AcDbCircle
 10
1771.001
 20
944.99999999999977
 40
17.32000000000004
100
AcDbArc
 50
-127.31780476670569
 51
-52.68219523329431
  0
ARC
  5
514
100
AcDbEntity
  8
0
  6
CONTINUOUS
 62
             2
100
AcDbCircle
 10
1616.500500000001
 20
1315.9965860464799
 40
7.99999999999996
100
AcDbArc
 50
-116.80090298404124
 51
63.19909701595951
  0
ARC
  5
513
100
AcDbEntity
  8
1
  6
CONTINUOUS
 62
             2
100
AcDbCircle
 10
1870.0
 20
1690.0
 40
7.99999999999998
100
AcDbArc
 50
-156.8119624578338
 51
-23.1880375421662
  0
ARC
  5
512
100
AcDbEntity
  8
1
  6
CONTINUOUS
 62
             2
100
AcDbCircle
 10
1870.0
 20
1690.0
 40
8.00000000000102
100
AcDbArc
 50
23.188037542163
 51
156.81196245783701
  0
ARC
  5
511
100
AcDbEntity
  8
1
  6
CONTINUOUS
 62
             2
100
AcDbCircle
 10
1883.1500000000001
 20
1690.0
 40
3.15000000000009
100
AcDbArc
 50
-90.0
 51
90.0
  0
ARC
  5
510
100
AcDbEntity
  8
1
  6
CONTINUOUS
 62
             2
100
AcDbCircle
 10
1856.849999999999
 20
1690.0
 40
3.15000000000009
100
AcDbArc
 50
90.0
 51
-90.0
  0
ARC
  5
50F
100
AcDbEntity
  8
0
  6
CONTINUOUS
 62
             2
100
AcDbCircle
 10
1469.9987507330379
 20
1524.999500366521
 40
28.50050036760937
100
AcDbArc
 50
90.16850111207296
 51
-89.9994988879242
  0
ARC
  5
50E
100
AcDbEntity
  8
0
  6
CONTINUOUS
 62
             2
100
AcDbCircle
 10
1466.499
 20
967.50000000000136
 40
24.9994999999999
100
AcDbArc
 50
90.0
 51
180.0
  0
ARC
  5
50D
100
AcDbEntity
  8
0
  6
CONTINUOUS
 62
             2
100
AcDbCircle
 10
373.34099999999933
 20
944.99999999999977
 40
10.84500000000026
100
AcDbArc
 50
179.17899999999659
 51
-89.17799999999909
  0
ARC
  5
50C
100
AcDbEntity
  8
0
  6
CONTINUOUS
 62
             2
100
AcDbCircle
 10
525.49931569141881
 20
963.99912205096166
 40
28.49962205271039
100
AcDbArc
 50
0.16736533242939
 51
179.9993653324259
  0
ARC
  5
50B
100
AcDbEntity
  8
1
  6
CONTINUOUS
 62
             2
100
AcDbCircle
 10
1616.500500000001
 20
1316.0
 40
16.99999999999962
100
AcDbArc
 50
-70.25007720436101
 51
0.0
  0
ARC
  5
50A
100
AcDbEntity
  8
1
  6
CONTINUOUS
 62
             2
100
AcDbCircle
 10
1616.500500000001
 20
1316.0
 40
16.9999999999999
100
AcDbArc
 50
-178.71661096755602
 51
-70.25007720436101
  0
ARC
  5
509
100
AcDbEntity
  8
1
  6
CONTINUOUS
 62
             2
100
AcDbCircle
 10
1803.500500000001
 20
1316.0
 40
17.00000000000016
100
AcDbArc
 50
125.09428600334158
 51
-109.74992279564262
  0
ARC
  5
508
100
AcDbEntity
  8
1
  6
CONTINUOUS
 62
             2
100
AcDbCircle
 10
1803.500500000001
 20
1316.0
 40
17.0
100
AcDbArc
 50
-109.74992279564262
 51
0.0
  0
ARC
  5
507
100
AcDbEntity
  8
1
  6
CONTINUOUS
 62
             2
100
AcDbCircle
 10
1803.500500000001
 20
1316.0
 40
17.00000000000091
100
AcDbArc
 50
0.0
 51
40.11916689840448
  0
ARC
  5
506
100
AcDbEntity
  8
1
  6
CONTINUOUS
 62
             2
100
AcDbCircle
 10
1688.786887819057
 20
1371.000076
 40
1.44999999999997
100
AcDbArc
 50
-43.60281897270487
 51
43.60281897270487
  0
ARC
  5
505
100
AcDbEntity
  8
1
  6
CONTINUOUS
 62
             2
100
AcDbCircle
 10
1669.744902000001
 20
1370.500076
 40
0.51249999999999
100
AcDbArc
 50
102.68038349181485
 51
-102.68038349181485
  0
ARC
  5
504
100
AcDbEntity
  8
1
  6
CONTINUOUS
 62
             2
100
AcDbCircle
 10
1669.5199020000009
 20
1371.500076
 40
0.51250000000004
100
AcDbArc
 50
-77.31961650816035
 51
77.31961650816035
  0
ARC
  5
503
100
AcDbEntity
  8
0
  6
CONTINUOUS
 62
             2
100
AcDbCircle
 10
1771.0005000000001
 20
944.99999999999977
 40
8.0
100
AcDbArc
 50
90.0
 51
-90.0
  0
ARC
  5
502
100
AcDbEntity
  8
1
  6
CONTINUOUS
 62
             2
100
AcDbCircle
 10
1856.849999999999
 20
1326.996188793071
 40
3.14999999999986
100
AcDbArc
 50
90.0
 51
-90.0
  0
ARC
  5
501
100
AcDbEntity
  8
1
  6
CONTINUOUS
 62
             2
100
AcDbCircle
 10
1883.1500000000001
 20
1326.996188793071
 40
3.14999999999895
100
AcDbArc
 50
-90.0
 51
90.0
  0
ARC
  5
500
100
AcDbEntity
  8
1
  6
CONTINUOUS
 62
             2
100
AcDbCircle
 10
1870.0
 20
1326.996188793071
 40
8.00000000000058
100
AcDbArc
 50
-156.81196245784449
 51
-23.18803754215551
  0
ARC
  5
4FF
100
AcDbEntity
  8
1
  6
CONTINUOUS
 62
             2
100
AcDbCircle
 10
1870.0
 20
1326.996188793071
 40
7.99999999999989
100
AcDbArc
 50
23.1880375421647
 51
156.81196245783528
  0
ARC
  5
4FE
100
AcDbEntity
  8
1
  6
CONTINUOUS
 62
             2
100
AcDbCircle
 10
1683.5632290036531
 20
695.08367478297509
 40
0.61329122960448
100
AcDbArc
 50
99.24592969435156
 51
-121.45741083419422
  0
ARC
  5
4FD
100
AcDbEntity
  8
1
  6
CONTINUOUS
 62
             2
100
AcDbCircle
 10
1682.923118996345
 20
694.03736521702535
 40
0.61329122960433
100
AcDbArc
 50
-80.75407030573233
 51
58.54258916561648
  0
ARC
  5
4FC
100
AcDbEntity
  8
0
  6
CONTINUOUS
 62
             2
100
AcDbCircle
 10
2487.4776529207661
 20
1670.1935000000001
 40
39.99600000000024
100
AcDbArc
 50
149.99600000000103
 51
-149.99500000000089
  0
ARC
  5
4FB
100
AcDbEntity
  8
1
  6
CONTINUOUS
 62
             2
100
AcDbCircle
 10
1710.000500000001
 20
1579.9989999999989
 40
128.49999999999773
100
AcDbArc
 50
-143.54742358924258
 51
-109.07758826099354
  0
ARC
  5
4FA
100
AcDbEntity
  8
1
  6
CONTINUOUS
 62
             2
100
AcDbCircle
 10
1710.000500000001
 20
1579.9989999999989
 40
128.50000000000173
100
AcDbArc
 50
23.56617916344046
 51
43.78112476486923
  0
ARC
  5
4F9
100
AcDbEntity
  8
1
  6
CONTINUOUS
 62
             2
100
AcDbCircle
 10
1710.000500000001
 20
1579.9989999999989
 40
128.50000000000304
100
AcDbArc
 50
76.49895874473516
 51
90.0
  0
ARC
  5
4F8
100
AcDbEntity
  8
1
  6
CONTINUOUS
 62
             2
100
AcDbCircle
 10
1710.000500000001
 20
1579.9989999999989
 40
128.50000000000105
100
AcDbArc
 50
11.32042429674367
 51
23.56617916344046
  0
ARC
  5
4F7
100
AcDbEntity
  8
1
  6
CONTINUOUS
 62
             2
100
AcDbCircle
 10
1710.000500000001
 20
1579.9989999999989
 40
128.49999999999949
100
AcDbArc
 50
-43.78112476486786
 51
-23.5661791634387
  0
ARC
  5
4F6
100
AcDbEntity
  8
1
  6
CONTINUOUS
 62
             2
100
AcDbCircle
 10
1710.000500000001
 20
1579.9989999999989
 40
128.49999999999994
100
AcDbArc
 50
-50.75130329696637
 51
-43.78112476486786
  0
ARC
  5
4F5
100
AcDbEntity
  8
1
  6
CONTINUOUS
 62
             2
100
AcDbCircle
 10
1710.000500000001
 20
1579.9989999999989
 40
128.49999999999704
100
AcDbArc
 50
-76.49895874473452
 51
-70.92241173900735
  0
ARC
  5
4F4
100
AcDbEntity
  8
1
  6
CONTINUOUS
 62
             2
100
AcDbCircle
 10
1710.000500000001
 20
1579.9989999999989
 40
128.5
100
AcDbArc
 50
-23.5661791634387
 51
-11.32042429674217
  0
ARC
  5
4F3
100
AcDbEntity
  8
1
  6
CONTINUOUS
 62
             2
100
AcDbCircle
 10
1710.000500000001
 20
1579.9989999999989
 40
128.49999999999704
100
AcDbArc
 50
-103.50104125526549
 51
-76.49895874473452
  0
ARC
  5
4F2
100
AcDbEntity
  8
1
  6
CONTINUOUS
 62
             2
100
AcDbCircle
 10
1710.000500000001
 20
1579.9989999999989
 40
128.49999999999829
100
AcDbArc
 50
-109.07758826099354
 51
-103.50104125526549
  0
ARC
  5
4F1
100
AcDbEntity
  8
1
  6
CONTINUOUS
 62
             2
100
AcDbCircle
 10
1710.000500000001
 20
1579.9989999999989
 40
128.50000000000119
100
AcDbArc
 50
43.78112476486923
 51
76.49895874473516
  0
ARC
  5
4F0
100
AcDbEntity
  8
1
  6
CONTINUOUS
 62
             2
100
AcDbCircle
 10
1710.000500000001
 20
1579.9989999999989
 40
128.50000000000318
100
AcDbArc
 50
90.0
 51
103.50104125526526
  0
ARC
  5
4EF
100
AcDbEntity
  8
1
  6
CONTINUOUS
 62
             2
100
AcDbCircle
 10
1710.000500000001
 20
1579.9989999999989
 40
128.49999999999761
100
AcDbArc
 50
-70.92241173900735
 51
-58.85124621928077
  0
ARC
  5
4EE
100
AcDbEntity
  8
1
  6
CONTINUOUS
 62
             2
100
AcDbCircle
 10
1710.000500000001
 20
1579.9989999999989
 40
128.49999999999906
100
AcDbArc
 50
103.50104125526526
 51
-164.81942277837283
  0
ARC
  5
4ED
100
AcDbEntity
  8
1
  6
CONTINUOUS
 62
             2
100
AcDbCircle
 10
1803.500500000001
 20
1316.0
 40
16.99999999999984
100
AcDbArc
 50
40.11916689840448
 51
68.9493163873325
  0
ARC
  5
4EC
100
AcDbEntity
  8
1
  6
CONTINUOUS
 62
             2
100
AcDbCircle
 10
1616.500500000001
 20
1316.0
 40
17.0
100
AcDbArc
 50
0.0
 51
125.13841389953744
  0
ARC
  5
4EB
100
AcDbEntity
  8
1
  6
CONTINUOUS
 62
             2
100
AcDbCircle
 10
1870.0000000000009
 20
524.99999999999977
 40
16.29999999999922
100
AcDbArc
 50
-37.84278573589013
 51
-142.15721426410937
  0
ARC
  5
4EA
100
AcDbEntity
  8
0
  6
CONTINUOUS
 62
             2
100
AcDbCircle
 10
1771.001
 20
944.99999999999977
 40
17.32000000000004
100
AcDbArc
 50
-52.68219523329431
 51
-28.6619927619004
  0
ARC
  5
4E9
100
AcDbEntity
  8
0
  6
CONTINUOUS
 62
             2
100
AcDbCircle
 10
660.0005000000001
 20
934.0
 40
17.32000000000062
100
AcDbArc
 50
0.0
 51
-166.64717493919125
  0
ARC
  5
4E8
100
AcDbEntity
  8
1
  6
CONTINUOUS
 62
             2
100
AcDbCircle
 10
1794.000500000001
 20
1533.9990000000021
 40
4.0
100
AcDbArc
 50
90.0
 51
93.02063844345389
  0
ARC
  5
4E7
100
AcDbEntity
  8
1
  6
CONTINUOUS
 62
             2
100
AcDbCircle
 10
1794.000500000001
 20
1533.9990000000021
 40
4.00000000000053
100
AcDbArc
 50
105.01234045723317
 51
90.0
  0
ARC
  5
4E6
100
AcDbEntity
  8
0
  6
DOTTED
 62
             3
100
AcDbCircle
 10
1470.0
 20
1524.999500000001
 40
52.00000000000024
100
AcDbArc
 50
24.24109077635998
 51
30.07554638232902
  0
ARC
  5
4E5
100
AcDbEntity
  8
0
  6
DOTTED
 62
             3
100
AcDbCircle
 10
1470.0
 20
1524.999500000001
 40
52.00000000000028
100
AcDbArc
 50
33.23456154820207
 51
-33.23584029400091
  0
ARC
  5
4E4
100
AcDbEntity
  8
0
  6
DOTTED
 62
             3
100
AcDbCircle
 10
1470.0
 20
1524.999500000001
 40
52.00000000000001
100
AcDbArc
 50
-30.07554638232902
 51
-24.24107194181907
  0
ARC
  5
4E3
100
AcDbEntity
  8
0
  6
CONTINUOUS
 62
             2
100
AcDbCircle
 10
1870.0000000000009
 20
524.99999999999977
 40
10.0
100
AcDbArc
 50
0.0
 51
-90.00000000000522
  0
ARC
  5
4E2
100
AcDbEntity
  8
0
  6
CONTINUOUS
 62
             2
100
AcDbCircle
 10
1870.0000000000009
 20
524.99999999999977
 40
10.0
100
AcDbArc
 50
-90.00000000000522
 51
0.0
  0
LINE
  5
4E1
100
AcDbEntity
  8
1
  6
CONTINUOUS
 62
             7
100
AcDbLine
 10
1245.0
 20
780.0
 11
1247.0
 21
780.0
  0
LINE
  5
4E0
100
AcDbEntity
  8
1
  6
CONTINUOUS
 62
             7
100
AcDbLine
 10
1245.0
 20
830.0
 11
1247.0
 21
830.0
  0
LINE
  5
4DF
100
AcDbEntity
  8
0
  6
CONTINUOUS
 62
             2
100
AcDbLine
 10
1748.765792824006
 20
752.01296673356956
 11
1768.6331672447359
 21
752.01296673356956
  0
LINE
  5
4DE
100
AcDbEntity
  8
0
  6
CONTINUOUS
 62
             2
100
AcDbLine
 10
1748.765792824006
 20
760.28784466019715
 11
1768.6331672447359
 21
760.28784466019715
  0
LINE
  5
4DD
100
AcDbEntity
  8
0
  6
CONTINUOUS
 62
             2
100
AcDbLine
 10
1780.5535918971759
 20
756.41296673356919
 11
1768.6331672447359
 21
748.61296673356992
  0
LINE
  5
4DC
100
AcDbEntity
  8
0
  6
CONTINUOUS
 62
             2
100
AcDbLine
 10
1780.5535918971759
 20
756.41296673356919
 11
1768.6331672447359
 21
763.48784466019606
  0
LINE
  5
4DB
100
AcDbEntity
  8
0
  6
CONTINUOUS
 62
             2
100
AcDbLine
 10
1768.6331672447359
 20
760.28784466019715
 11
1768.6331672447359
 21
763.48784466019606
  0
LINE
  5
4DA
100
AcDbEntity
  8
0
  6
CONTINUOUS
 62
             2
100
AcDbLine
 10
1768.6331672447359
 20
752.01296673356956
 11
1768.6331672447359
 21
748.61296673356992
  0
LINE
  5
4D9
100
AcDbEntity
  8
0
  6
CONTINUOUS
 62
             2
100
AcDbLine
 10
1748.765792824006
 20
760.28784466019715
 11
1748.765792824006
 21
752.01296673356956
  0
LINE
  5
4D8
100
AcDbEntity
  8
1
  6
CONTINUOUS
 62
             7
100
AcDbLine
 10
1099.151203356844
 20
1180.0
 11
1037.5512033568441
 21
1180.0
  0
LINE
  5
4D7
100
AcDbEntity
  8
0
  6
CONTINUOUS
 62
             7
100
AcDbLine
 10
1753.000500000001
 20
973.99999999999955
 11
1751.000500000001
 21
973.99999999999955
  0
LINE
  5
4D6
100
AcDbEntity
  8
0
  6
CONTINUOUS
 62
             7
100
AcDbLine
 10
1245.77
 20
1640.0
 11
1243.77
 21
1640.0
  0
LINE
  5
4D5
100
AcDbEntity
  8
0
  6
CONTINUOUS
 62
             7
100
AcDbLine
 10
1710.000500000001
 20
1385.9990000000021
 11
1710.000500000001
 21
1387.9990000000021
  0
LINE
  5
4D4
100
AcDbEntity
  8
0
  6
CONTINUOUS
 62
             7
100
AcDbLine
 10
1754.000500000001
 20
1615.9985000000011
 11
1756.000500000001
 21
1615.9985000000011
  0
LINE
  5
4D3
100
AcDbEntity
  8
1
  6
CONTINUOUS
 62
             2
100
AcDbLine
 10
1314.61431871016
 20
855.49622516928025
 11
1314.61431871016
 21
724.49622516927843
  0
LINE
  5
4D2
100
AcDbEntity
  8
1
  6
CONTINUOUS
 62
             2
100
AcDbLine
 10
1410.11431871016
 20
855.49622516928025
 11
1314.61431871016
 21
855.49622516928025
  0
LINE
  5
4D1
100
AcDbEntity
  8
1
  6
CONTINUOUS
 62
             2
100
AcDbLine
 10
1410.11431871016
 20
724.49622516927843
 11
1410.11431871016
 21
855.49622516928025
  0
LINE
  5
4D0
100
AcDbEntity
  8
1
  6
CONTINUOUS
 62
             2
100
AcDbLine
 10
1314.61431871016
 20
724.49622516927843
 11
1410.11431871016
 21
724.49622516927843
  0
LINE
  5
4CF
100
AcDbEntity
  8
0
  6
DOT_CENTER
 62
             1
100
AcDbLine
 10
1269.999
 20
1363.4369999999999
 11
1269.999
 21
1436.6855
  0
LINE
  5
4CE
100
AcDbEntity
  8
0
  6
DOT_CENTER
 62
             1
100
AcDbLine
 10
1233.8525
 20
1400.0
 11
1307.3495
 21
1400.0
  0
LINE
  5
4CD
100
AcDbEntity
  8
1
  6
CONTINUOUS
 62
             7
100
AcDbLine
 10
2970.0
 20
2050.0
 11
2970.0
 21
2100.0
  0
LINE
  5
4CC
100
AcDbEntity
  8
1
  6
CONTINUOUS
 62
             7
100
AcDbLine
 10
2970.0
 20
50.0
 11
2970.0
 21
0.0
  0
LINE
  5
4CB
100
AcDbEntity
  8
1
  6
CONTINUOUS
 62
             7
100
AcDbLine
 10
2920.0
 20
2100.0
 11
2970.0
 21
2100.0
  0
LINE
  5
4CA
100
AcDbEntity
  8
1
  6
CONTINUOUS
 62
             7
100
AcDbLine
 10
0.0
 20
2100.0
 11
50.0
 21
2100.0
  0
LINE
  5
4C9
100
AcDbEntity
  8
1
  6
CONTINUOUS
 62
             7
100
AcDbLine
 10
0.0
 20
2050.0
 11
0.0
 21
2100.0
  0
LINE
  5
4C8
100
AcDbEntity
  8
1
  6
CONTINUOUS
 62
             7
100
AcDbLine
 10
2920.0
 20
0.0
 11
2970.0
 21
0.0
  0
LINE
  5
4C7
100
AcDbEntity
  8
1
  6
CONTINUOUS
 62
             7
100
AcDbLine
 10
0.0
 20
0.0
 11
50.0
 21
0.0
  0
LINE
  5
4C6
100
AcDbEntity
  8
1
  6
CONTINUOUS
 62
             7
100
AcDbLine
 10
0.0
 20
50.0
 11
0.0
 21
0.0
  0
LINE
  5
4C5
100
AcDbEntity
  8
0
  6
CONTINUOUS
 62
             2
100
AcDbLine
 10
2909.9965000000002
 20
2049.9994999999999
 11
89.99900000000025
 21
2049.9994999999999
  0
LINE
  5
4C4
100
AcDbEntity
  8
0
  6
CONTINUOUS
 62
             2
100
AcDbLine
 10
2909.9965000000002
 20
55.0004999999999
 11
2909.9965000000002
 21
2049.9994999999999
  0
LINE
  5
4C3
100
AcDbEntity
  8
0
  6
CONTINUOUS
 62
             2
100
AcDbLine
 10
89.99900000000025
 20
55.0004999999999
 11
2909.9965000000002
 21
55.0004999999999
  0
LINE
  5
4C2
100
AcDbEntity
  8
0
  6
CONTINUOUS
 62
             2
100
AcDbLine
 10
89.99900000000025
 20
2049.9994999999999
 11
89.99900000000025
 21
55.0004999999999
  0
LINE
  5
4C1
100
AcDbEntity
  8
0
  6
CONTINUOUS
 62
             2
100
AcDbLine
 10
2129.9960000000001
 20
95.0
 11
1929.9955
 21
95.0
  0
LINE
  5
4C0
100
AcDbEntity
  8
0
  6
CONTINUOUS
 62
             2
100
AcDbLine
 10
1929.9955
 20
135.0
 11
2129.9960000000001
 21
135.0
  0
LINE
  5
4BF
100
AcDbEntity
  8
0
  6
CONTINUOUS
 62
             2
100
AcDbLine
 10
2129.9960000000001
 20
175.0
 11
1929.9955
 21
175.0
  0
LINE
  5
4BE
100
AcDbEntity
  8
0
  6
CONTINUOUS
 62
             2
100
AcDbLine
 10
1929.9955
 20
215.0
 11
2129.9960000000001
 21
215.0
  0
LINE
  5
4BD
100
AcDbEntity
  8
0
  6
CONTINUOUS
 62
             2
100
AcDbLine
 10
1929.9949999999999
 20
255.0
 11
1929.9949999999999
 21
55.0004999999999
  0
LINE
  5
4BC
100
AcDbEntity
  8
0
  6
CONTINUOUS
 62
             2
100
AcDbLine
 10
1904.9955
 20
55.0004999999999
 11
1904.9955
 21
255.0
  0
LINE
  5
4BB
100
AcDbEntity
  8
0
  6
CONTINUOUS
 62
             2
100
AcDbLine
 10
1824.9955
 20
255.0
 11
1824.9955
 21
55.0004999999999
  0
LINE
  5
4BA
100
AcDbEntity
  8
0
  6
CONTINUOUS
 62
             2
100
AcDbLine
 10
2129.9940000000011
 20
255.0
 11
1824.9955
 21
255.0
  0
LINE
  5
4B9
100
AcDbEntity
  8
0
  6
CONTINUOUS
 62
             2
100
AcDbLine
 10
2129.9940000000011
 20
505.0
 11
2129.9940000000011
 21
255.0
  0
LINE
  5
4B8
100
AcDbEntity
  8
0
  6
CONTINUOUS
 62
             2
100
AcDbLine
 10
2909.9965000000002
 20
505.0
 11
2129.9940000000011
 21
505.0
  0
LINE
  5
4B7
100
AcDbEntity
  8
0
  6
CONTINUOUS
 62
             2
100
AcDbLine
 10
2864.9925000000012
 20
55.0004999999999
 11
2864.9925000000012
 21
142.4985000000004
  0
LINE
  5
4B6
100
AcDbEntity
  8
0
  6
CONTINUOUS
 62
             2
100
AcDbLine
 10
2524.9965000000002
 20
255.0
 11
2909.9965000000002
 21
255.0
  0
LINE
  5
4B5
100
AcDbEntity
  8
0
  6
CONTINUOUS
 62
             2
100
AcDbLine
 10
2524.9965000000002
 20
55.0004999999999
 11
2524.9965000000002
 21
255.0
  0
LINE
  5
4B4
100
AcDbEntity
  8
0
  6
CONTINUOUS
 62
             2
100
AcDbLine
 10
2129.9960000000001
 20
255.0
 11
2129.9960000000001
 21
55.0004999999999
  0
LINE
  5
4B3
100
AcDbEntity
  8
0
  6
CONTINUOUS
 62
             2
100
AcDbLine
 10
2129.9935000000009
 20
255.0
 11
2524.9955
 21
255.0
  0
LINE
  5
4B2
100
AcDbEntity
  8
0
  6
CONTINUOUS
 62
             2
100
AcDbLine
 10
2129.9960000000001
 20
95.0
 11
2524.9960000000001
 21
95.0
  0
LINE
  5
4B1
100
AcDbEntity
  8
0
  6
CONTINUOUS
 62
             2
100
AcDbLine
 10
2524.9960000000001
 20
255.0
 11
2524.9960000000001
 21
464.99900000000031
  0
LINE
  5
4B0
100
AcDbEntity
  8
0
  6
CONTINUOUS
 62
             2
100
AcDbLine
 10
2129.9940000000011
 20
465.0
 11
2909.9965000000002
 21
465.0
  0
LINE
  5
4AF
100
AcDbEntity
  8
0
  6
CONTINUOUS
 62
             2
100
AcDbLine
 10
2129.9940000000011
 20
430.0
 11
2909.9965000000002
 21
430.0
  0
LINE
  5
4AE
100
AcDbEntity
  8
0
  6
CONTINUOUS
 62
             2
100
AcDbLine
 10
2129.9940000000011
 20
395.0
 11
2909.9965000000002
 21
395.0
  0
LINE
  5
4AD
100
AcDbEntity
  8
0
  6
CONTINUOUS
 62
             2
100
AcDbLine
 10
2129.9940000000011
 20
360.0
 11
2909.9965000000002
 21
360.0
  0
LINE
  5
4AC
100
AcDbEntity
  8
0
  6
CONTINUOUS
 62
             2
100
AcDbLine
 10
2129.9940000000011
 20
325.0
 11
2909.9965000000002
 21
325.0
  0
LINE
  5
4AB
100
AcDbEntity
  8
0
  6
CONTINUOUS
 62
             2
100
AcDbLine
 10
2129.9940000000011
 20
290.0
 11
2909.9965000000002
 21
290.0
  0
LINE
  5
4AA
100
AcDbEntity
  8
0
  6
CONTINUOUS
 62
             2
100
AcDbLine
 10
1864.9955
 20
55.0004999999999
 11
1864.9955
 21
255.0
  0
LINE
  5
4A9
100
AcDbEntity
  8
0
  6
CONTINUOUS
 62
             2
100
AcDbLine
 10
2524.9960000000001
 20
142.5
 11
2909.9965000000002
 21
142.5
  0
LINE
  5
4A8
100
AcDbEntity
  8
0
  6
CONTINUOUS
 62
             2
100
AcDbLine
 10
2499.9955
 20
176.22949999999949
 11
2154.9960000000001
 21
176.22949999999949
  0
LINE
  5
4A7
100
AcDbEntity
  8
0
  6
CONTINUOUS
 62
             2
100
AcDbLine
 10
1904.9949999999999
 20
80.00049999999989
 11
1824.9955
 21
80.00049999999989
  0
LINE
  5
4A6
100
AcDbEntity
  8
0
  6
CONTINUOUS
 62
             2
100
AcDbLine
 10
1824.9955
 20
230.0
 11
1904.9949999999999
 21
230.0
  0
LINE
  5
4A5
100
AcDbEntity
  8
0
  6
CONTINUOUS
 62
             2
100
AcDbLine
 10
1875.565833333332
 20
67.50343448592506
 11
1892.8858333333339
 21
57.50343448592506
  0
LINE
  5
4A4
100
AcDbEntity
  8
0
  6
CONTINUOUS
 62
             2
100
AcDbLine
 10
1892.8865000000001
 20
77.50343448592506
 11
1875.565833333332
 21
67.50343448592506
  0
LINE
  5
4A3
100
AcDbEntity
  8
0
  6
CONTINUOUS
 62
             2
100
AcDbLine
 10
1892.8865000000001
 20
57.50343448592506
 11
1892.8865000000001
 21
77.50343448592506
  0
LINE
  5
4A2
100
AcDbEntity
  8
0
  6
CONTINUOUS
 62
             2
100
AcDbLine
 10
2689.9925000000012
 20
465.0
 11
2689.9925000000012
 21
505.0
  0
LINE
  5
4A1
100
AcDbEntity
  8
0
  6
CONTINUOUS
 62
             2
100
AcDbLine
 10
2649.9925000000012
 20
465.0
 11
2649.9925000000012
 21
505.0
  0
LINE
  5
4A0
100
AcDbEntity
  8
0
  6
CONTINUOUS
 62
             2
100
AcDbLine
 10
2394.9935000000009
 20
465.0
 11
2394.9935000000009
 21
505.0
  0
LINE
  5
49F
100
AcDbEntity
  8
0
  6
CONTINUOUS
 62
             2
100
AcDbLine
 10
2179.9929999999999
 20
465.0
 11
2179.9929999999999
 21
505.0
  0
LINE
  5
49E
100
AcDbEntity
  8
0
  6
CONTINUOUS
 62
             2
100
AcDbLine
 10
1835.565833333332
 20
67.50343448592506
 11
1852.8858333333339
 21
57.50343448592506
  0
LINE
  5
49D
100
AcDbEntity
  8
0
  6
CONTINUOUS
 62
             2
100
AcDbLine
 10
1852.8865000000001
 20
77.50343448592506
 11
1835.565833333332
 21
67.50343448592506
  0
LINE
  5
49C
100
AcDbEntity
  8
0
  6
CONTINUOUS
 62
             2
100
AcDbLine
 10
1852.8865000000001
 20
57.50343448592506
 11
1852.8865000000001
 21
77.50343448592506
  0
LINE
  5
49B
100
AcDbEntity
  8
0
  6
CONTINUOUS
 62
             2
100
AcDbLine
 10
554.50000000000011
 20
952.99999999999977
 11
554.50000000000011
 21
936.99999999999955
  0
LINE
  5
49A
100
AcDbEntity
  8
0
  6
CONTINUOUS
 62
             2
100
AcDbLine
 10
554.50000000000011
 20
936.99999999999955
 11
642.94229376370413
 21
936.99999999999955
  0
LINE
  5
499
100
AcDbEntity
  8
0
  6
CONTINUOUS
 62
             2
100
AcDbLine
 10
554.50000000000011
 20
952.99999999999977
 11
693.49941885474777
 21
952.99999999999955
  0
LINE
  5
498
100
AcDbEntity
  8
0
  6
CONTINUOUS
 62
             2
100
AcDbLine
 10
731.49941885474777
 20
918.20000000000027
 11
731.49941885474777
 21
816.5285273650793
  0
LINE
  5
497
100
AcDbEntity
  8
0
  6
DOT_CENTER
 62
             1
100
AcDbLine
 10
554.50000000000011
 20
944.99999999999955
 11
646.62206959879018
 21
944.99999999999955
  0
LINE
  5
496
100
AcDbEntity
  8
0
  6
CONTINUOUS
 62
             2
100
AcDbLine
 10
1784.3640468889789
 20
1536.8064279242069
 11
1768.483351985321
 21
1534.8561639822619
  0
LINE
  5
495
100
AcDbEntity
  8
0
  6
CONTINUOUS
 62
             2
100
AcDbLine
 10
1768.483351985321
 20
1534.8561639822619
 11
1795.560136856702
 21
1315.024995819218
  0
LINE
  5
494
100
AcDbEntity
  8
0
  6
CONTINUOUS
 62
             2
100
AcDbLine
 10
1784.3640468889789
 20
1536.8064279242069
 11
1811.4408631433
 21
1316.9750041807861
  0
LINE
  5
493
100
AcDbEntity
  8
0
  6
DOT_CENTER
 62
             1
100
AcDbLine
 10
1776.4269119865451
 20
1535.8316904774849
 11
1805.076896586952
 21
1303.2
  0
LINE
  5
492
100
AcDbEntity
  8
0
  6
DOT_CENTER
 62
             1
100
AcDbLine
 10
1786.3837687111809
 20
1581.8896591050741
 11
1755.615388884341
 21
1578.1113257315851
  0
LINE
  5
491
100
AcDbEntity
  8
0
  6
DOT_CENTER
 62
             1
100
AcDbLine
 10
1776.4237729153649
 20
1535.8313049768899
 11
1769.110751659879
 21
1595.3839683943811
  0
LINE
  5
490
100
AcDbEntity
  8
0
  6
CONTINUOUS
 62
             2
100
AcDbLine
 10
1784.6515826367799
 20
1554.976882721847
 11
1763.8081504406589
 21
1552.417325282428
  0
LINE
  5
48F
100
AcDbEntity
  8
0
  6
CONTINUOUS
 62
             2
100
AcDbLine
 10
1756.8603397086199
 20
1551.5641394692871
 11
1759.0542460852639
 21
1533.69834044404
  0
LINE
  5
48E
100
AcDbEntity
  8
0
  6
CONTINUOUS
 62
             2
100
AcDbLine
 10
1763.8081504406589
 20
1552.417325282428
 11
1756.8603397086199
 21
1551.5641394692871
  0
LINE
  5
48D
100
AcDbEntity
  8
0
  6
CONTINUOUS
 62
             2
100
AcDbLine
 10
1759.2984539997769
 20
1589.1414677232101
 11
1763.8081504406589
 21
1552.417325282428
  0
LINE
  5
48C
100
AcDbEntity
  8
0
  6
CONTINUOUS
 62
             2
100
AcDbLine
 10
1780.141886195898
 20
1591.701025162632
 11
1759.2984539997769
 21
1589.1414677232101
  0
LINE
  5
48B
100
AcDbEntity
  8
0
  6
CONTINUOUS
 62
             2
100
AcDbLine
 10
1784.6515826367799
 20
1554.976882721847
 11
1780.141886195898
 21
1591.701025162632
  0
LINE
  5
48A
100
AcDbEntity
  8
0
  6
CONTINUOUS
 62
             2
100
AcDbLine
 10
1791.599393368821
 20
1555.830068534987
 11
1784.6515826367799
 21
1554.976882721847
  0
LINE
  5
489
100
AcDbEntity
  8
0
  6
CONTINUOUS
 62
             2
100
AcDbLine
 10
1793.793299745465
 20
1537.9642695097391
 11
1791.599393368821
 21
1555.830068534987
  0
LINE
  5
488
100
AcDbEntity
  8
0
  6
CONTINUOUS
 62
             2
100
AcDbLine
 10
1759.0542460852639
 20
1533.69834044404
 11
1793.793299745465
 21
1537.9642695097391
  0
LINE
  5
487
100
AcDbEntity
  8
1
  6
DOT_CENTER
 62
             1
100
AcDbLine
 10
510.00000000000051
 20
911.99949999999899
 11
510.00000000000051
 21
894.99949999999899
  0
LINE
  5
486
100
AcDbEntity
  8
1
  6
CONTINUOUS
 62
             2
100
AcDbLine
 10
490.00050000000061
 20
906.99949999999899
 11
490.00050000000061
 21
894.99949999999899
  0
LINE
  5
485
100
AcDbEntity
  8
1
  6
CONTINUOUS
 62
             2
100
AcDbLine
 10
530.00050000000056
 20
906.99949999999899
 11
490.00050000000061
 21
906.99949999999899
  0
LINE
  5
484
100
AcDbEntity
  8
1
  6
CONTINUOUS
 62
             2
100
AcDbLine
 10
530.00050000000056
 20
894.99949999999899
 11
530.00050000000056
 21
906.99949999999899
  0
LINE
  5
483
100
AcDbEntity
  8
1
  6
CONTINUOUS
 62
             2
100
AcDbLine
 10
490.00050000000061
 20
894.99949999999899
 11
530.00050000000056
 21
894.99949999999899
  0
LINE
  5
482
100
AcDbEntity
  8
1
  6
CONTINUOUS
 62
             2
100
AcDbLine
 10
390.00050000000061
 20
894.99949999999899
 11
430.00050000000061
 21
894.99949999999899
  0
LINE
  5
481
100
AcDbEntity
  8
1
  6
CONTINUOUS
 62
             2
100
AcDbLine
 10
430.00050000000061
 20
894.99949999999899
 11
430.00050000000061
 21
906.99949999999899
  0
LINE
  5
480
100
AcDbEntity
  8
1
  6
CONTINUOUS
 62
             2
100
AcDbLine
 10
430.00050000000061
 20
906.99949999999899
 11
393.14999999999918
 21
906.99949999999899
  0
LINE
  5
47F
100
AcDbEntity
  8
1
  6
DOT_CENTER
 62
             1
100
AcDbLine
 10
410.00000000000051
 20
911.99949999999899
 11
410.00000000000051
 21
894.99949999999899
  0
LINE
  5
47E
100
AcDbEntity
  8
0
  6
DOTTED
 62
             3
100
AcDbLine
 10
523.60000000000048
 20
583.30000000000018
 11
496.39999999999873
 21
583.30000000000018
  0
LINE
  5
47D
100
AcDbEntity
  8
0
  6
DOTTED
 62
             3
100
AcDbLine
 10
523.60000000000048
 20
894.99999999999909
 11
496.40000000000038
 21
894.99999999999909
  0
LINE
  5
47C
100
AcDbEntity
  8
0
  6
DOTTED
 62
             3
100
AcDbLine
 10
523.60000000000048
 20
894.99999999999909
 11
523.60000000000048
 21
583.30000000000018
  0
LINE
  5
47B
100
AcDbEntity
  8
0
  6
DOT_CENTER
 62
             1
100
AcDbLine
 10
409.9999999999992
 20
894.99999999999909
 11
410.00000000000028
 21
578.30000000000018
  0
LINE
  5
47A
100
AcDbEntity
  8
0
  6
DOTTED
 62
             3
100
AcDbLine
 10
423.59999999999923
 20
894.99999999999909
 11
423.59999999999923
 21
583.30000000000018
  0
LINE
  5
479
100
AcDbEntity
  8
0
  6
DOTTED
 62
             3
100
AcDbLine
 10
396.3999999999993
 20
894.99999999999909
 11
396.39999999999731
 21
583.30000000000018
  0
LINE
  5
478
100
AcDbEntity
  8
0
  6
DOTTED
 62
             3
100
AcDbLine
 10
423.59999999999923
 20
583.30000000000018
 11
396.39999999999731
 21
583.30000000000018
  0
LINE
  5
477
100
AcDbEntity
  8
0
  6
DOTTED
 62
             3
100
AcDbLine
 10
496.40000000000038
 20
894.99999999999909
 11
496.39999999999873
 21
583.30000000000018
  0
LINE
  5
476
100
AcDbEntity
  8
0
  6
DOT_CENTER
 62
             1
100
AcDbLine
 10
510.00000000000028
 20
894.99999999999909
 11
510.00000000000148
 21
578.30000000000018
  0
LINE
  5
475
100
AcDbEntity
  8
0
  6
DOT_CENTER
 62
             1
100
AcDbLine
 10
525.5
 20
577.30000000000018
 11
525.5
 21
674.30000000000018
  0
LINE
  5
474
100
AcDbEntity
  8
0
  6
DOTTED
 62
             3
100
AcDbLine
 10
523.60000000000048
 20
653.30000000000018
 11
550.5
 21
653.30000000000018
  0
LINE
  5
473
100
AcDbEntity
  8
0
  6
DOTTED
 62
             3
100
AcDbLine
 10
577.5
 20
653.30000000000018
 11
577.5
 21
582.30000000000018
  0
LINE
  5
472
100
AcDbEntity
  8
0
  6
DOTTED
 62
             3
100
AcDbLine
 10
550.5
 20
653.30000000000018
 11
577.5
 21
653.30000000000018
  0
LINE
  5
471
100
AcDbEntity
  8
0
  6
DOTTED
 62
             3
100
AcDbLine
 10
550.5
 20
669.30000000000018
 11
550.5
 21
653.30000000000018
  0
LINE
  5
470
100
AcDbEntity
  8
0
  6
DOTTED
 62
             3
100
AcDbLine
 10
523.60000000000048
 20
669.30000000000018
 11
550.5
 21
669.30000000000018
  0
LINE
  5
46F
100
AcDbEntity
  8
0
  6
DOTTED
 62
             3
100
AcDbLine
 10
473.5
 20
653.30000000000018
 11
496.39999999999873
 21
653.30000000000018
  0
LINE
  5
46E
100
AcDbEntity
  8
0
  6
DOTTED
 62
             3
100
AcDbLine
 10
473.5
 20
582.30000000000018
 11
473.5
 21
653.30000000000018
  0
LINE
  5
46D
100
AcDbEntity
  8
0
  6
DOTTED
 62
             3
100
AcDbLine
 10
577.5
 20
582.30000000000018
 11
473.5
 21
582.30000000000018
  0
LINE
  5
46C
100
AcDbEntity
  8
0
  6
DOT_CENTER
 62
             1
100
AcDbLine
 10
525.5
 20
669.30000000000109
 11
525.5
 21
895.0
  0
LINE
  5
46B
100
AcDbEntity
  8
0
  6
DOTTED
 62
             3
100
AcDbLine
 10
547.5
 20
669.30000000000109
 11
547.5
 21
895.0
  0
LINE
  5
46A
100
AcDbEntity
  8
0
  6
DOTTED
 62
             3
100
AcDbLine
 10
673.59999999999889
 20
583.30000000000018
 11
646.39999999999679
 21
583.30000000000018
  0
LINE
  5
469
100
AcDbEntity
  8
0
  6
DOTTED
 62
             3
100
AcDbLine
 10
646.39999999999884
 20
822.00049999999919
 11
646.39999999999679
 21
583.30000000000018
  0
LINE
  5
468
100
AcDbEntity
  8
0
  6
DOTTED
 62
             3
100
AcDbLine
 10
673.59999999999889
 20
894.99999999999909
 11
673.59999999999889
 21
583.30000000000018
  0
LINE
  5
467
100
AcDbEntity
  8
0
  6
DOT_CENTER
 62
             1
100
AcDbLine
 10
659.99999999999875
 20
822.00049999999919
 11
659.99999999999989
 21
578.30000000000018
  0
LINE
  5
466
100
AcDbEntity
  8
1
  6
CONTINUOUS
 62
             2
100
AcDbLine
 10
703.2000000000005
 20
875.0
 11
376.80000000000052
 21
875.0
  0
LINE
  5
465
100
AcDbEntity
  8
0
  6
CONTINUOUS
 62
             2
100
AcDbLine
 10
376.80000000000052
 20
875.0
 11
376.80000000000052
 21
514.99999999999955
  0
LINE
  5
464
100
AcDbEntity
  8
0
  6
CONTINUOUS
 62
             2
100
AcDbLine
 10
703.2000000000005
 20
875.0
 11
703.2000000000005
 21
514.99999999999955
  0
LINE
  5
463
100
AcDbEntity
  8
1
  6
CONTINUOUS
 62
             2
100
AcDbLine
 10
710.00000000000045
 20
875.0
 11
703.2000000000005
 21
875.0
  0
LINE
  5
462
100
AcDbEntity
  8
0
  6
CONTINUOUS
 62
             2
100
AcDbLine
 10
710.00000000000045
 20
875.0
 11
710.00000000000045
 21
895.0
  0
LINE
  5
461
100
AcDbEntity
  8
0
  6
CONTINUOUS
 62
             2
100
AcDbLine
 10
710.00000000000045
 20
895.0
 11
370.00000000000051
 21
895.0
  0
LINE
  5
460
100
AcDbEntity
  8
0
  6
CONTINUOUS
 62
             2
100
AcDbLine
 10
370.00000000000051
 20
895.0
 11
370.00000000000051
 21
875.0
  0
LINE
  5
45F
100
AcDbEntity
  8
0
  6
CONTINUOUS
 62
             2
100
AcDbLine
 10
376.80000000000052
 20
514.99999999999955
 11
540.0
 21
514.99999999999955
  0
LINE
  5
45E
100
AcDbEntity
  8
0
  6
CONTINUOUS
 62
             2
100
AcDbLine
 10
380.00000000000068
 20
514.99999999999955
 11
380.00000000000051
 21
875.0
  0
LINE
  5
45D
100
AcDbEntity
  8
0
  6
CONTINUOUS
 62
             2
100
AcDbLine
 10
700.00000000000068
 20
527.69999999999982
 11
380.00000000000068
 21
527.69999999999982
  0
LINE
  5
45C
100
AcDbEntity
  8
0
  6
CONTINUOUS
 62
             2
100
AcDbLine
 10
700.00000000000045
 20
875.0
 11
700.00000000000068
 21
514.99999999999955
  0
LINE
  5
45B
100
AcDbEntity
  8
1
  6
CONTINUOUS
 62
             2
100
AcDbLine
 10
376.80000000000052
 20
875.0
 11
370.00000000000051
 21
875.0
  0
LINE
  5
45A
100
AcDbEntity
  8
0
  6
CONTINUOUS
 62
             2
100
AcDbLine
 10
649.5005000000001
 20
947.77433845961332
 11
649.5005000000001
 21
930.0
  0
LINE
  5
459
100
AcDbEntity
  8
0
  6
CONTINUOUS
 62
             2
100
AcDbLine
 10
670.5005000000001
 20
947.77433845961332
 11
649.5005000000001
 21
947.77433845961332
  0
LINE
  5
458
100
AcDbEntity
  8
0
  6
CONTINUOUS
 62
             2
100
AcDbLine
 10
669.48050000000057
 20
907.0
 11
664.50000000000091
 21
907.0
  0
LINE
  5
457
100
AcDbEntity
  8
0
  6
DOT_CENTER
 62
             1
100
AcDbLine
 10
660.0
 20
956.31949999999961
 11
660.0
 21
930.0
  0
LINE
  5
456
100
AcDbEntity
  8
0
  6
DOT_CENTER
 62
             1
100
AcDbLine
 10
637.68050000000039
 20
934.0
 11
682.32050000000072
 21
934.0
  0
LINE
  5
455
100
AcDbEntity
  8
0
  6
DOT_CENTER
 62
             1
100
AcDbLine
 10
650.00000000000091
 20
818.34349999999995
 11
650.00000000000091
 21
932.51500000000033
  0
LINE
  5
454
100
AcDbEntity
  8
1
  6
DOTTED
 62
             3
100
AcDbLine
 10
635.50050000000101
 20
895.0
 11
635.50050000000101
 21
822.00049999999919
  0
LINE
  5
453
100
AcDbEntity
  8
1
  6
DOTTED
 62
             3
100
AcDbLine
 10
635.50050000000101
 20
822.00049999999919
 11
664.50000000000091
 21
822.00049999999919
  0
LINE
  5
452
100
AcDbEntity
  8
1
  6
DOTTED
 62
             3
100
AcDbLine
 10
664.50000000000091
 20
822.00049999999919
 11
664.50000000000091
 21
895.0
  0
LINE
  5
451
100
AcDbEntity
  8
0
  6
CONTINUOUS
 62
             2
100
AcDbLine
 10
635.50050000000101
 20
908.0
 11
664.50000000000091
 21
908.0
  0
LINE
  5
450
100
AcDbEntity
  8
0
  6
CONTINUOUS
 62
             2
100
AcDbLine
 10
684.49950000000081
 20
895.0
 11
615.50050000000101
 21
895.0
  0
LINE
  5
44F
100
AcDbEntity
  8
0
  6
CONTINUOUS
 62
             2
100
AcDbLine
 10
615.50050000000101
 20
895.0
 11
615.50050000000101
 21
896.0
  0
LINE
  5
44E
100
AcDbEntity
  8
0
  6
CONTINUOUS
 62
             2
100
AcDbLine
 10
615.50050000000101
 20
896.0
 11
635.50050000000101
 21
896.0
  0
LINE
  5
44D
100
AcDbEntity
  8
0
  6
CONTINUOUS
 62
             2
100
AcDbLine
 10
635.50050000000101
 20
896.0
 11
635.50050000000101
 21
908.0
  0
LINE
  5
44C
100
AcDbEntity
  8
0
  6
CONTINUOUS
 62
             2
100
AcDbLine
 10
635.50050000000101
 20
908.0
 11
622.00000000000091
 21
908.0
  0
LINE
  5
44B
100
AcDbEntity
  8
0
  6
CONTINUOUS
 62
             2
100
AcDbLine
 10
622.00000000000091
 20
908.0
 11
622.00000000000091
 21
930.0
  0
LINE
  5
44A
100
AcDbEntity
  8
0
  6
CONTINUOUS
 62
             2
100
AcDbLine
 10
622.00000000000091
 20
930.0
 11
678.00050000000101
 21
930.0
  0
LINE
  5
449
100
AcDbEntity
  8
0
  6
CONTINUOUS
 62
             2
100
AcDbLine
 10
678.00050000000101
 20
930.0
 11
678.00050000000101
 21
908.0
  0
LINE
  5
448
100
AcDbEntity
  8
0
  6
CONTINUOUS
 62
             2
100
AcDbLine
 10
678.00050000000101
 20
908.0
 11
664.50000000000091
 21
908.0
  0
LINE
  5
447
100
AcDbEntity
  8
0
  6
CONTINUOUS
 62
             2
100
AcDbLine
 10
664.50000000000091
 20
908.0
 11
664.50000000000091
 21
896.0
  0
LINE
  5
446
100
AcDbEntity
  8
0
  6
CONTINUOUS
 62
             2
100
AcDbLine
 10
664.50000000000091
 20
896.0
 11
682.00000000000045
 21
896.0
  0
LINE
  5
445
100
AcDbEntity
  8
0
  6
CONTINUOUS
 62
             2
100
AcDbLine
 10
635.50050000000101
 20
896.0
 11
664.50000000000091
 21
896.0
  0
LINE
  5
444
100
AcDbEntity
  8
0
  6
CONTINUOUS
 62
             2
100
AcDbLine
 10
697.99950000000035
 20
895.0
 11
682.00000000000045
 21
895.0
  0
LINE
  5
443
100
AcDbEntity
  8
0
  6
CONTINUOUS
 62
             2
100
AcDbLine
 10
682.00000000000045
 20
895.0
 11
682.00000000000045
 21
900.58949999999913
  0
LINE
  5
442
100
AcDbEntity
  8
0
  6
CONTINUOUS
 62
             2
100
AcDbLine
 10
682.00000000000045
 20
900.58949999999913
 11
686.85000000000173
 21
901.98099999999977
  0
LINE
  5
441
100
AcDbEntity
  8
0
  6
CONTINUOUS
 62
             2
100
AcDbLine
 10
686.85000000000173
 20
901.98099999999977
 11
686.85000000000173
 21
925.14999999999964
  0
LINE
  5
440
100
AcDbEntity
  8
0
  6
CONTINUOUS
 62
             2
100
AcDbLine
 10
693.15000000000146
 20
925.14999999999964
 11
693.15000000000146
 21
901.98099999999977
  0
LINE
  5
43F
100
AcDbEntity
  8
0
  6
CONTINUOUS
 62
             2
100
AcDbLine
 10
693.15000000000146
 20
901.98099999999977
 11
697.99950000000035
 21
900.58949999999913
  0
LINE
  5
43E
100
AcDbEntity
  8
0
  6
CONTINUOUS
 62
             2
100
AcDbLine
 10
697.99950000000035
 20
900.58949999999913
 11
697.99950000000035
 21
895.0
  0
LINE
  5
43D
100
AcDbEntity
  8
0
  6
CONTINUOUS
 62
             2
100
AcDbLine
 10
686.85000000000173
 20
901.98099999999977
 11
686.85000000000173
 21
898.98749999999927
  0
LINE
  5
43C
100
AcDbEntity
  8
0
  6
CONTINUOUS
 62
             2
100
AcDbLine
 10
693.15100000000075
 20
901.98099999999977
 11
693.15100000000075
 21
898.98749999999927
  0
LINE
  5
43B
100
AcDbEntity
  8
1
  6
DOT_CENTER
 62
             1
100
AcDbLine
 10
690.00000000000045
 20
931.26849999999922
 11
690.00000000000045
 21
891.98099999999977
  0
LINE
  5
43A
100
AcDbEntity
  8
1
  6
DOT_CENTER
 62
             1
100
AcDbLine
 10
390.00000000000051
 20
891.98099999999977
 11
390.00000000000051
 21
931.26849999999922
  0
LINE
  5
439
100
AcDbEntity
  8
0
  6
CONTINUOUS
 62
             2
100
AcDbLine
 10
386.84900000000022
 20
898.98749999999927
 11
386.84900000000022
 21
901.98099999999977
  0
LINE
  5
438
100
AcDbEntity
  8
0
  6
CONTINUOUS
 62
             2
100
AcDbLine
 10
393.14999999999918
 20
898.98749999999927
 11
393.14999999999918
 21
901.98099999999977
  0
LINE
  5
437
100
AcDbEntity
  8
0
  6
CONTINUOUS
 62
             2
100
AcDbLine
 10
382.00050000000061
 20
895.0
 11
382.00050000000061
 21
900.58949999999913
  0
LINE
  5
436
100
AcDbEntity
  8
0
  6
CONTINUOUS
 62
             2
100
AcDbLine
 10
382.00050000000061
 20
900.58949999999913
 11
386.84999999999951
 21
901.98099999999977
  0
LINE
  5
435
100
AcDbEntity
  8
0
  6
CONTINUOUS
 62
             2
100
AcDbLine
 10
386.84999999999951
 20
901.98099999999977
 11
386.84999999999951
 21
925.14999999999964
  0
LINE
  5
434
100
AcDbEntity
  8
0
  6
CONTINUOUS
 62
             2
100
AcDbLine
 10
393.14999999999918
 20
925.14999999999964
 11
393.14999999999918
 21
901.98099999999977
  0
LINE
  5
433
100
AcDbEntity
  8
0
  6
CONTINUOUS
 62
             2
100
AcDbLine
 10
393.14999999999918
 20
901.98099999999977
 11
398.00000000000051
 21
900.58949999999913
  0
LINE
  5
432
100
AcDbEntity
  8
0
  6
CONTINUOUS
 62
             2
100
AcDbLine
 10
398.00000000000051
 20
900.58949999999913
 11
398.00000000000051
 21
895.0
  0
LINE
  5
431
100
AcDbEntity
  8
0
  6
CONTINUOUS
 62
             2
100
AcDbLine
 10
398.00000000000051
 20
895.0
 11
382.00050000000061
 21
895.0
  0
LINE
  5
430
100
AcDbEntity
  8
1
  6
CONTINUOUS
 62
             2
100
AcDbLine
 10
1250.0005000000001
 20
895.0
 11
1290.0005000000001
 21
895.0
  0
LINE
  5
42F
100
AcDbEntity
  8
1
  6
CONTINUOUS
 62
             2
100
AcDbLine
 10
1290.0005000000001
 20
907.0
 11
1284.4994999999999
 21
907.0
  0
LINE
  5
42E
100
AcDbEntity
  8
1
  6
CONTINUOUS
 62
             2
100
AcDbLine
 10
1250.0005000000001
 20
907.0
 11
1250.0005000000001
 21
896.00000000000091
  0
LINE
  5
42D
100
AcDbEntity
  8
0
  6
DOT_CENTER
 62
             1
100
AcDbLine
 10
1245.77
 20
1540.0
 11
1295.2
 21
1540.0
  0
LINE
  5
42C
100
AcDbEntity
  8
0
  6
DOT_CENTER
 62
             1
100
AcDbLine
 10
1270.0
 20
1564.23
 11
1270.0
 21
1514.5585000000001
  0
LINE
  5
42B
100
AcDbEntity
  8
0
  6
DOT_CENTER
 62
             1
100
AcDbLine
 10
1270.0
 20
1664.23
 11
1270.0
 21
1614.558500000001
  0
LINE
  5
42A
100
AcDbEntity
  8
0
  6
DOT_CENTER
 62
             1
100
AcDbLine
 10
1245.77
 20
1640.0
 11
1295.2
 21
1640.0
  0
LINE
  5
429
100
AcDbEntity
  8
1
  6
CONTINUOUS
 62
             2
100
AcDbLine
 10
1215.0
 20
875.0
 11
1545.0
 21
875.0
  0
LINE
  5
428
100
AcDbEntity
  8
1
  6
CONTINUOUS
 62
             2
100
AcDbLine
 10
1545.0
 20
875.0
 11
1570.0
 21
875.0
  0
LINE
  5
427
100
AcDbEntity
  8
1
  6
CONTINUOUS
 62
             2
100
AcDbLine
 10
1215.0
 20
514.99999999999909
 11
1545.0
 21
514.99999999999909
  0
LINE
  5
426
100
AcDbEntity
  8
1
  6
DOTTED
 62
             3
100
AcDbLine
 10
1540.0
 20
875.0
 11
1540.0
 21
527.70000000000005
  0
LINE
  5
425
100
AcDbEntity
  8
0
  6
CONTINUOUS
 62
             2
100
AcDbLine
 10
1570.0
 20
895.0
 11
1190.0
 21
895.0
  0
LINE
  5
424
100
AcDbEntity
  8
0
  6
CONTINUOUS
 62
             2
100
AcDbLine
 10
1215.0
 20
514.99999999999909
 11
1215.0
 21
875.0
  0
LINE
  5
423
100
AcDbEntity
  8
1
  6
DOTTED
 62
             3
100
AcDbLine
 10
1220.0
 20
875.0
 11
1220.0
 21
527.70000000000005
  0
LINE
  5
422
100
AcDbEntity
  8
1
  6
DOTTED
 62
             3
100
AcDbLine
 10
1220.0
 20
527.70000000000005
 11
1233.671283192175
 21
527.70000000000005
  0
LINE
  5
421
100
AcDbEntity
  8
1
  6
CONTINUOUS
 62
             2
100
AcDbLine
 10
1570.0
 20
875.0
 11
1570.0
 21
895.0
  0
LINE
  5
420
100
AcDbEntity
  8
1
  6
CONTINUOUS
 62
             2
100
AcDbLine
 10
1190.0
 20
875.0
 11
1190.0
 21
895.0
  0
LINE
  5
41F
100
AcDbEntity
  8
1
  6
CONTINUOUS
 62
             2
100
AcDbLine
 10
1190.0
 20
875.0
 11
1215.0
 21
875.0
  0
LINE
  5
41E
100
AcDbEntity
  8
0
  6
CONTINUOUS
 62
             2
100
AcDbLine
 10
1545.0
 20
875.0
 11
1545.0
 21
514.99999999999909
  0
LINE
  5
41D
100
AcDbEntity
  8
0
  6
CONTINUOUS
 62
             2
100
AcDbLine
 10
1212.9994999999999
 20
897.79795790212029
 11
1212.9994999999999
 21
895.0
  0
LINE
  5
41C
100
AcDbEntity
  8
0
  6
CONTINUOUS
 62
             2
100
AcDbLine
 10
1197.0005000000001
 20
897.79795790212029
 11
1197.0005000000001
 21
900.58899999999994
  0
LINE
  5
41B
100
AcDbEntity
  8
0
  6
DOTTED
 62
             3
100
AcDbLine
 10
1212.9994999999999
 20
895.0
 11
1197.0005000000001
 21
895.0
  0
LINE
  5
41A
100
AcDbEntity
  8
0
  6
CONTINUOUS
 62
             2
100
AcDbLine
 10
1205.0
 20
902.0
 11
1212.9994999999999
 21
900.58899999999994
  0
LINE
  5
419
100
AcDbEntity
  8
0
  6
CONTINUOUS
 62
             2
100
AcDbLine
 10
1197.0005000000001
 20
900.58899999999994
 11
1205.0
 21
902.0
  0
LINE
  5
418
100
AcDbEntity
  8
1
  6
DOT_CENTER
 62
             1
100
AcDbLine
 10
1183.7004999999999
 20
912.0
 11
1226.2840000000001
 21
912.0
  0
LINE
  5
417
100
AcDbEntity
  8
1
  6
DOT_CENTER
 62
             1
100
AcDbLine
 10
1205.0
 20
890.0
 11
1205.0
 21
933.27800000000025
  0
LINE
  5
416
100
AcDbEntity
  8
0
  6
CONTINUOUS
 62
             2
100
AcDbLine
 10
1197.0005000000001
 20
895.0
 11
1197.0005000000001
 21
897.79795790212029
  0
LINE
  5
415
100
AcDbEntity
  8
0
  6
CONTINUOUS
 62
             2
100
AcDbLine
 10
1212.9994999999999
 20
900.58899999999994
 11
1212.9994999999999
 21
897.79795790212029
  0
LINE
  5
414
100
AcDbEntity
  8
1
  6
CONTINUOUS
 62
             2
100
AcDbLine
 10
1561.5000000000009
 20
1663.752776749732
 11
1555.0
 21
1667.5055534994631
  0
LINE
  5
413
100
AcDbEntity
  8
1
  6
CONTINUOUS
 62
             2
100
AcDbLine
 10
1555.0
 20
1667.5055534994631
 11
1548.5
 21
1663.752776749732
  0
LINE
  5
412
100
AcDbEntity
  8
1
  6
CONTINUOUS
 62
             2
100
AcDbLine
 10
1548.5
 20
1663.752776749732
 11
1548.5
 21
1656.247223250268
  0
LINE
  5
411
100
AcDbEntity
  8
1
  6
CONTINUOUS
 62
             2
100
AcDbLine
 10
1548.5
 20
1656.247223250268
 11
1555.0
 21
1652.494446500536
  0
LINE
  5
410
100
AcDbEntity
  8
1
  6
CONTINUOUS
 62
             2
100
AcDbLine
 10
1555.0
 20
1652.494446500536
 11
1561.5000000000009
 21
1656.247223250268
  0
LINE
  5
40F
100
AcDbEntity
  8
1
  6
CONTINUOUS
 62
             2
100
AcDbLine
 10
1561.5000000000009
 20
1656.247223250268
 11
1561.5000000000009
 21
1663.752776749732
  0
LINE
  5
40E
100
AcDbEntity
  8
1
  6
DOT_CENTER
 62
             1
100
AcDbLine
 10
1546.85972327285
 20
1660.0
 11
1563.9254729863601
 21
1660.0
  0
LINE
  5
40D
100
AcDbEntity
  8
1
  6
DOT_CENTER
 62
             1
100
AcDbLine
 10
1555.0
 20
1669.612779717489
 11
1555.0
 21
1649.728832803592
  0
LINE
  5
40C
100
AcDbEntity
  8
1
  6
DOT_CENTER
 62
             1
100
AcDbLine
 10
1555.0
 20
1369.612779717489
 11
1555.0
 21
1356.0265003739421
  0
LINE
  5
40B
100
AcDbEntity
  8
1
  6
CONTINUOUS
 62
             2
100
AcDbLine
 10
1561.5000000000009
 20
1356.2472232502671
 11
1561.5000000000009
 21
1363.7527767497329
  0
LINE
  5
40A
100
AcDbEntity
  8
1
  6
CONTINUOUS
 62
             2
100
AcDbLine
 10
1548.5
 20
1363.7527767497329
 11
1548.5
 21
1359.3099917355471
  0
LINE
  5
409
100
AcDbEntity
  8
1
  6
CONTINUOUS
 62
             2
100
AcDbLine
 10
1555.0
 20
1367.5055534994631
 11
1548.5
 21
1363.7527767497329
  0
LINE
  5
408
100
AcDbEntity
  8
1
  6
CONTINUOUS
 62
             2
100
AcDbLine
 10
1561.5000000000009
 20
1363.7527767497329
 11
1555.0
 21
1367.5055534994631
  0
LINE
  5
407
100
AcDbEntity
  8
1
  6
DOTTED
 62
             3
100
AcDbLine
 10
1545.0
 20
1670.0
 11
1215.3
 21
1670.0
  0
LINE
  5
406
100
AcDbEntity
  8
1
  6
DOTTED
 62
             3
100
AcDbLine
 10
1215.0
 20
1670.0
 11
1215.0
 21
1663.1500000000001
  0
LINE
  5
405
100
AcDbEntity
  8
1
  6
CONTINUOUS
 62
             2
100
AcDbLine
 10
1190.0
 20
1340.0
 11
1551.2406135721949
 21
1340.0
  0
LINE
  5
404
100
AcDbEntity
  8
1
  6
CONTINUOUS
 62
             2
100
AcDbLine
 10
1570.0
 20
1680.0
 11
1190.0
 21
1680.0
  0
LINE
  5
403
100
AcDbEntity
  8
1
  6
CONTINUOUS
 62
             2
100
AcDbLine
 10
1190.0
 20
1680.0
 11
1190.0
 21
1662.5495097567989
  0
LINE
  5
402
100
AcDbEntity
  8
1
  6
CONTINUOUS
 62
             2
100
AcDbLine
 10
641.49899999999889
 20
895.0
 11
673.4989999999998
 21
895.0
  0
LINE
  5
401
100
AcDbEntity
  8
1
  6
CONTINUOUS
 62
             2
100
AcDbLine
 10
673.4989999999998
 20
907.0
 11
664.50000000000091
 21
907.0
  0
LINE
  5
400
100
AcDbEntity
  8
1
  6
CONTINUOUS
 62
             2
100
AcDbLine
 10
1212.3537405447839
 20
1363.1500000000001
 11
1197.6462594552161
 21
1363.1500000000001
  0
LINE
  5
3FF
100
AcDbEntity
  8
1
  6
CONTINUOUS
 62
             2
100
AcDbLine
 10
1212.3537405447851
 20
1356.8499999999981
 11
1197.6462594552149
 21
1356.8499999999981
  0
LINE
  5
3FE
100
AcDbEntity
  8
1
  6
CONTINUOUS
 62
             2
100
AcDbLine
 10
1218.150000000001
 20
1356.8499999999981
 11
1212.3537405447851
 21
1356.8499999999981
  0
LINE
  5
3FD
100
AcDbEntity
  8
1
  6
CONTINUOUS
 62
             2
100
AcDbLine
 10
1218.150000000001
 20
1363.1500000000001
 11
1212.3537405447839
 21
1363.1500000000001
  0
LINE
  5
3FC
100
AcDbEntity
  8
1
  6
CONTINUOUS
 62
             2
100
AcDbLine
 10
1197.6462594552161
 20
1363.1500000000001
 11
1191.8499999999999
 21
1363.1500000000001
  0
LINE
  5
3FB
100
AcDbEntity
  8
1
  6
CONTINUOUS
 62
             2
100
AcDbLine
 10
1197.6462594552149
 20
1356.8499999999981
 11
1191.8499999999999
 21
1356.8499999999981
  0
LINE
  5
3FA
100
AcDbEntity
  8
0
  6
DOT_CENTER
 62
             1
100
AcDbLine
 10
1205.0
 20
1373.0
 11
1205.0
 21
1347.0
  0
LINE
  5
3F9
100
AcDbEntity
  8
0
  6
DOT_CENTER
 62
             1
100
AcDbLine
 10
1226.2995000000001
 20
1360.0
 11
1183.6990000000001
 21
1360.0
  0
LINE
  5
3F8
100
AcDbEntity
  8
0
  6
DOT_CENTER
 62
             1
100
AcDbLine
 10
1183.6990000000001
 20
1660.0
 11
1226.2995000000001
 21
1660.0
  0
LINE
  5
3F7
100
AcDbEntity
  8
0
  6
DOT_CENTER
 62
             1
100
AcDbLine
 10
1205.0
 20
1673.0
 11
1205.0
 21
1647.0
  0
LINE
  5
3F6
100
AcDbEntity
  8
1
  6
CONTINUOUS
 62
             2
100
AcDbLine
 10
1191.8499999999999
 20
1663.1500000000001
 11
1197.6462594552149
 21
1663.1500000000001
  0
LINE
  5
3F5
100
AcDbEntity
  8
1
  6
CONTINUOUS
 62
             2
100
AcDbLine
 10
1191.8499999999999
 20
1656.8499999999981
 11
1197.6462594552161
 21
1656.8499999999981
  0
LINE
  5
3F4
100
AcDbEntity
  8
1
  6
CONTINUOUS
 62
             2
100
AcDbLine
 10
1212.3537405447839
 20
1656.8499999999981
 11
1218.150000000001
 21
1656.8499999999981
  0
LINE
  5
3F3
100
AcDbEntity
  8
1
  6
CONTINUOUS
 62
             2
100
AcDbLine
 10
1212.3537405447851
 20
1663.1500000000001
 11
1218.150000000001
 21
1663.1500000000001
  0
LINE
  5
3F2
100
AcDbEntity
  8
1
  6
CONTINUOUS
 62
             2
100
AcDbLine
 10
1197.6462594552149
 20
1663.1500000000001
 11
1212.3537405447851
 21
1663.1500000000001
  0
LINE
  5
3F1
100
AcDbEntity
  8
1
  6
CONTINUOUS
 62
             2
100
AcDbLine
 10
1197.6462594552161
 20
1656.8499999999981
 11
1212.3537405447839
 21
1656.8499999999981
  0
LINE
  5
3F0
100
AcDbEntity
  8
0
  6
DOT_CENTER
 62
             1
100
AcDbLine
 10
1616.5
 20
741.19954200000188
 11
1616.5
 21
904.0
  0
LINE
  5
3EF
100
AcDbEntity
  8
0
  6
DOT_CENTER
 62
             1
100
AcDbLine
 10
1586.5
 20
934.0
 11
1514.5009999999991
 21
934.0
  0
LINE
  5
3EE
100
AcDbEntity
  8
0
  6
CONTINUOUS
 62
             2
100
AcDbLine
 10
1586.5
 20
942.0
 11
1514.5009999999991
 21
942.0
  0
LINE
  5
3ED
100
AcDbEntity
  8
0
  6
CONTINUOUS
 62
             2
100
AcDbLine
 10
1624.5
 20
741.19954200000188
 11
1624.5
 21
904.0
  0
LINE
  5
3EC
100
AcDbEntity
  8
0
  6
CONTINUOUS
 62
             2
100
AcDbLine
 10
1586.5
 20
926.0
 11
1514.5009999999991
 21
926.0
  0
LINE
  5
3EB
100
AcDbEntity
  8
0
  6
CONTINUOUS
 62
             2
100
AcDbLine
 10
1608.5
 20
741.19954200000188
 11
1608.5
 21
904.0
  0
LINE
  5
3EA
100
AcDbEntity
  8
0
  6
CONTINUOUS
 62
             2
100
AcDbLine
 10
1514.5009999999991
 20
926.0
 11
1514.5009999999991
 21
942.0
  0
LINE
  5
3E9
100
AcDbEntity
  8
0
  6
CONTINUOUS
 62
             2
100
AcDbLine
 10
1608.5
 20
741.19954200000188
 11
1624.5
 21
741.19954200000188
  0
LINE
  5
3E8
100
AcDbEntity
  8
0
  6
DOT_CENTER
 62
             1
100
AcDbLine
 10
1616.5
 20
741.19954200000188
 11
1616.5
 21
693.24950000000126
  0
LINE
  5
3E7
100
AcDbEntity
  8
0
  6
CONTINUOUS
 62
             2
100
AcDbLine
 10
1606.0
 20
723.20004200000108
 11
1627.0
 21
723.20004200000108
  0
LINE
  5
3E6
100
AcDbEntity
  8
0
  6
CONTINUOUS
 62
             2
100
AcDbLine
 10
1627.0
 20
714.54954200000134
 11
1606.0
 21
714.54954200000134
  0
LINE
  5
3E5
100
AcDbEntity
  8
0
  6
CONTINUOUS
 62
             2
100
AcDbLine
 10
1608.0005000000001
 20
704.54954200000134
 11
1625.0
 21
704.54954200000134
  0
LINE
  5
3E4
100
AcDbEntity
  8
0
  6
CONTINUOUS
 62
             2
100
AcDbLine
 10
1625.0
 20
704.55004200000144
 11
1624.5
 21
698.20004200000108
  0
LINE
  5
3E3
100
AcDbEntity
  8
0
  6
CONTINUOUS
 62
             2
100
AcDbLine
 10
1632.099999999999
 20
704.55004200000144
 11
1625.0
 21
704.55004200000144
  0
LINE
  5
3E2
100
AcDbEntity
  8
0
  6
CONTINUOUS
 62
             2
100
AcDbLine
 10
1632.099999999999
 20
714.54954200000134
 11
1632.099999999999
 21
704.55004200000144
  0
LINE
  5
3E1
100
AcDbEntity
  8
0
  6
CONTINUOUS
 62
             2
100
AcDbLine
 10
1627.0
 20
714.54954200000134
 11
1632.099999999999
 21
714.54954200000134
  0
LINE
  5
3E0
100
AcDbEntity
  8
0
  6
CONTINUOUS
 62
             2
100
AcDbLine
 10
1627.0
 20
723.20004200000108
 11
1627.0
 21
714.54954200000134
  0
LINE
  5
3DF
100
AcDbEntity
  8
0
  6
CONTINUOUS
 62
             2
100
AcDbLine
 10
1633.8
 20
723.20004200000108
 11
1627.0
 21
723.20004200000108
  0
LINE
  5
3DE
100
AcDbEntity
  8
0
  6
CONTINUOUS
 62
             2
100
AcDbLine
 10
1633.8
 20
741.19954200000188
 11
1633.8
 21
723.20004200000108
  0
LINE
  5
3DD
100
AcDbEntity
  8
0
  6
CONTINUOUS
 62
             2
100
AcDbLine
 10
1599.1999999999989
 20
741.19954200000188
 11
1633.8
 21
741.19954200000188
  0
LINE
  5
3DC
100
AcDbEntity
  8
0
  6
CONTINUOUS
 62
             2
100
AcDbLine
 10
1599.1999999999989
 20
723.20004200000108
 11
1599.1999999999989
 21
741.19954200000188
  0
LINE
  5
3DB
100
AcDbEntity
  8
0
  6
CONTINUOUS
 62
             2
100
AcDbLine
 10
1606.0
 20
723.20004200000108
 11
1599.1999999999989
 21
723.20004200000108
  0
LINE
  5
3DA
100
AcDbEntity
  8
0
  6
CONTINUOUS
 62
             2
100
AcDbLine
 10
1606.0
 20
714.54954200000134
 11
1606.0
 21
723.20004200000108
  0
LINE
  5
3D9
100
AcDbEntity
  8
0
  6
CONTINUOUS
 62
             2
100
AcDbLine
 10
1600.899999999999
 20
714.54954200000134
 11
1606.0
 21
714.54954200000134
  0
LINE
  5
3D8
100
AcDbEntity
  8
0
  6
CONTINUOUS
 62
             2
100
AcDbLine
 10
1600.899999999999
 20
704.55004200000144
 11
1600.899999999999
 21
714.54954200000134
  0
LINE
  5
3D7
100
AcDbEntity
  8
0
  6
CONTINUOUS
 62
             2
100
AcDbLine
 10
1608.0005000000001
 20
704.55004200000144
 11
1600.899999999999
 21
704.55004200000144
  0
LINE
  5
3D6
100
AcDbEntity
  8
0
  6
CONTINUOUS
 62
             2
100
AcDbLine
 10
1608.5005000000001
 20
698.20004200000108
 11
1608.0005000000001
 21
704.55004200000144
  0
LINE
  5
3D5
100
AcDbEntity
  8
0
  6
CONTINUOUS
 62
             2
100
AcDbLine
 10
1624.5
 20
698.20004200000108
 11
1608.5005000000001
 21
698.20004200000108
  0
LINE
  5
3D4
100
AcDbEntity
  8
0
  6
CONTINUOUS
 62
             2
100
AcDbLine
 10
1781.501
 20
931.22566154038577
 11
1781.501
 21
925.84999999999923
  0
LINE
  5
3D3
100
AcDbEntity
  8
0
  6
CONTINUOUS
 62
             2
100
AcDbLine
 10
1781.501
 20
925.84999999999923
 11
1779.1875
 21
925.84999999999923
  0
LINE
  5
3D2
100
AcDbEntity
  8
0
  6
CONTINUOUS
 62
             2
100
AcDbLine
 10
1779.1875
 20
925.84999999999923
 11
1778.8444999999999
 21
919.49999999999977
  0
LINE
  5
3D1
100
AcDbEntity
  8
0
  6
CONTINUOUS
 62
             2
100
AcDbLine
 10
1778.8444999999999
 20
919.49999999999977
 11
1763.1575
 21
919.49999999999977
  0
LINE
  5
3D0
100
AcDbEntity
  8
0
  6
CONTINUOUS
 62
             2
100
AcDbLine
 10
1763.1575
 20
919.49999999999977
 11
1762.8145
 21
925.84999999999923
  0
LINE
  5
3CF
100
AcDbEntity
  8
0
  6
CONTINUOUS
 62
             2
100
AcDbLine
 10
1762.8145
 20
925.84999999999923
 11
1760.501
 21
925.84999999999923
  0
LINE
  5
3CE
100
AcDbEntity
  8
0
  6
CONTINUOUS
 62
             2
100
AcDbLine
 10
1760.501
 20
925.84999999999923
 11
1760.501
 21
931.22566154038577
  0
LINE
  5
3CD
100
AcDbEntity
  8
0
  6
CONTINUOUS
 62
             2
100
AcDbLine
 10
1779.1875
 20
925.84999999999923
 11
1762.8145
 21
925.84999999999923
  0
LINE
  5
3CC
100
AcDbEntity
  8
0
  6
DOT_CENTER
 62
             1
100
AcDbLine
 10
1771.0005000000001
 20
967.31949999999938
 11
1771.0005000000001
 21
952.99999999999977
  0
LINE
  5
3CB
100
AcDbEntity
  8
0
  6
DOT_CENTER
 62
             1
100
AcDbLine
 10
1748.681499999999
 20
944.99999999999977
 11
1763.0005000000001
 21
944.99999999999977
  0
LINE
  5
3CA
100
AcDbEntity
  8
0
  6
DOT_CENTER
 62
             1
100
AcDbLine
 10
1509.723086674536
 20
1369.9354921515401
 11
1628.878130826545
 21
1309.743991549542
  0
LINE
  5
3C9
100
AcDbEntity
  8
0
  6
CONTINUOUS
 62
             2
100
AcDbLine
 10
1513.3300937568199
 20
1377.076158402926
 11
1620.107632862607
 21
1323.1372157464091
  0
LINE
  5
3C8
100
AcDbEntity
  8
0
  6
CONTINUOUS
 62
             2
100
AcDbLine
 10
1506.116057870574
 20
1362.794782898505
 11
1612.893367137395
 21
1308.855956346551
  0
LINE
  5
3C7
100
AcDbEntity
  8
0
  6
CONTINUOUS
 62
             2
100
AcDbLine
 10
1513.3300937568199
 20
1377.076158402926
 11
1506.116057870574
 21
1362.794782898505
  0
LINE
  5
3C6
100
AcDbEntity
  8
0
  6
CONTINUOUS
 62
             2
100
AcDbLine
 10
1501.8329318291751
 20
1354.315150232597
 11
1517.613251177733
 21
1385.555853189757
  0
LINE
  5
3C5
100
AcDbEntity
  8
0
  6
CONTINUOUS
 62
             2
100
AcDbLine
 10
1517.613251177733
 20
1385.555853189757
 11
1501.5466039426219
 21
1393.6714459975881
  0
LINE
  5
3C4
100
AcDbEntity
  8
0
  6
CONTINUOUS
 62
             2
100
AcDbLine
 10
1501.5466039426219
 20
1393.6714459975881
 11
1498.39054007291
 21
1387.423305406156
  0
LINE
  5
3C3
100
AcDbEntity
  8
0
  6
CONTINUOUS
 62
             2
100
AcDbLine
 10
1498.39054007291
 20
1387.423305406156
 11
1465.3646540896259
 21
1404.105357288917
  0
LINE
  5
3C2
100
AcDbEntity
  8
0
  6
CONTINUOUS
 62
             2
100
AcDbLine
 10
1465.3646540896259
 20
1404.105357288917
 11
1455.8964624804901
 21
1385.3609355146209
  0
LINE
  5
3C1
100
AcDbEntity
  8
0
  6
CONTINUOUS
 62
             2
100
AcDbLine
 10
1455.8964624804901
 20
1385.3609355146209
 11
1488.9223484637739
 21
1368.6788836318581
  0
LINE
  5
3C0
100
AcDbEntity
  8
0
  6
CONTINUOUS
 62
             2
100
AcDbLine
 10
1488.9223484637739
 20
1368.6788836318581
 11
1485.766284594062
 21
1362.4307430404281
  0
LINE
  5
3BF
100
AcDbEntity
  8
0
  6
CONTINUOUS
 62
             2
100
AcDbLine
 10
1485.766284594062
 20
1362.4307430404281
 11
1501.8329318291751
 21
1354.315150232597
  0
LINE
  5
3BE
100
AcDbEntity
  8
0
  6
CONTINUOUS
 62
             2
100
AcDbLine
 10
1498.39054007291
 20
1387.423305406156
 11
1488.9223484637739
 21
1368.6788836318581
  0
LINE
  5
3BD
100
AcDbEntity
  8
0
  6
DOT_CENTER
 62
             1
100
AcDbLine
 10
1509.723091503454
 20
1369.935501711177
 11
1456.16760071975
 21
1396.9874777372761
  0
LINE
  5
3BC
100
AcDbEntity
  8
0
  6
DOT_CENTER
 62
             1
100
AcDbLine
 10
1476.990078287635
 20
1403.834223620169
 11
1463.0134494406179
 21
1376.1643330110121
  0
LINE
  5
3BB
100
AcDbEntity
  8
0
  6
DOT_CENTER
 62
             1
100
AcDbLine
 10
723.50000000000045
 20
741.1994629244316
 11
723.49989198924732
 21
755.19999999999891
  0
LINE
  5
3BA
100
AcDbEntity
  8
0
  6
DOT_CENTER
 62
             1
100
AcDbLine
 10
693.49874403239164
 20
934.0
 11
677.32050000000072
 21
934.0
  0
LINE
  5
3B9
100
AcDbEntity
  8
0
  6
CONTINUOUS
 62
             2
100
AcDbLine
 10
693.49874403239164
 20
942.0
 11
675.36221865384891
 21
942.0
  0
LINE
  5
3B8
100
AcDbEntity
  8
0
  6
CONTINUOUS
 62
             2
100
AcDbLine
 10
731.49999999973579
 20
741.19952800000078
 11
731.49874403113427
 21
904.00030910895293
  0
LINE
  5
3B7
100
AcDbEntity
  8
0
  6
CONTINUOUS
 62
             2
100
AcDbLine
 10
693.49874403239164
 20
926.0
 11
693.03315017761963
 21
926.0
  0
LINE
  5
3B6
100
AcDbEntity
  8
0
  6
CONTINUOUS
 62
             2
100
AcDbLine
 10
715.50000000026512
 20
741.19939784886242
 11
715.49989353196156
 21
754.99999999999909
  0
LINE
  5
3B5
100
AcDbEntity
  8
0
  6
CONTINUOUS
 62
             2
100
AcDbLine
 10
715.50000000026512
 20
741.19939784886242
 11
731.49999999973579
 21
741.19952800000078
  0
LINE
  5
3B4
100
AcDbEntity
  8
0
  6
CONTINUOUS
 62
             2
100
AcDbLine
 10
731.50000000000045
 20
698.20002799999997
 11
715.50050000000056
 21
698.20002799999997
  0
LINE
  5
3B3
100
AcDbEntity
  8
0
  6
CONTINUOUS
 62
             2
100
AcDbLine
 10
715.50050000000056
 20
698.20002799999997
 11
715.00050000000056
 21
704.55002800000034
  0
LINE
  5
3B2
100
AcDbEntity
  8
0
  6
CONTINUOUS
 62
             2
100
AcDbLine
 10
715.00050000000056
 20
704.55002800000034
 11
707.90000000000055
 21
704.55002800000034
  0
LINE
  5
3B1
100
AcDbEntity
  8
0
  6
CONTINUOUS
 62
             2
100
AcDbLine
 10
707.90000000000055
 20
704.55002800000034
 11
707.90000000000055
 21
714.54952800000024
  0
LINE
  5
3B0
100
AcDbEntity
  8
0
  6
CONTINUOUS
 62
             2
100
AcDbLine
 10
707.90000000000055
 20
714.54952800000024
 11
713.00000000000091
 21
714.54952800000024
  0
LINE
  5
3AF
100
AcDbEntity
  8
0
  6
CONTINUOUS
 62
             2
100
AcDbLine
 10
713.00000000000091
 20
714.54952800000024
 11
713.00000000000091
 21
723.20002799999997
  0
LINE
  5
3AE
100
AcDbEntity
  8
0
  6
CONTINUOUS
 62
             2
100
AcDbLine
 10
713.00000000000091
 20
723.20002799999997
 11
706.20000000000073
 21
723.20002799999997
  0
LINE
  5
3AD
100
AcDbEntity
  8
0
  6
CONTINUOUS
 62
             2
100
AcDbLine
 10
706.20000000000073
 20
723.20002799999997
 11
706.20000000000073
 21
741.19952799999987
  0
LINE
  5
3AC
100
AcDbEntity
  8
0
  6
CONTINUOUS
 62
             2
100
AcDbLine
 10
706.20000000000073
 20
741.19952799999987
 11
740.80000000000064
 21
741.19952799999987
  0
LINE
  5
3AB
100
AcDbEntity
  8
0
  6
CONTINUOUS
 62
             2
100
AcDbLine
 10
740.80000000000064
 20
741.19952799999987
 11
740.80000000000064
 21
723.20002799999997
  0
LINE
  5
3AA
100
AcDbEntity
  8
0
  6
CONTINUOUS
 62
             2
100
AcDbLine
 10
740.80000000000064
 20
723.20002799999997
 11
734.00000000000045
 21
723.20002799999997
  0
LINE
  5
3A9
100
AcDbEntity
  8
0
  6
CONTINUOUS
 62
             2
100
AcDbLine
 10
734.00000000000045
 20
723.20002799999997
 11
734.00000000000045
 21
714.54952800000024
  0
LINE
  5
3A8
100
AcDbEntity
  8
0
  6
CONTINUOUS
 62
             2
100
AcDbLine
 10
734.00000000000045
 20
714.54952800000024
 11
739.10000000000036
 21
714.54952800000024
  0
LINE
  5
3A7
100
AcDbEntity
  8
0
  6
CONTINUOUS
 62
             2
100
AcDbLine
 10
739.10000000000036
 20
714.54952800000024
 11
739.10000000000036
 21
704.55002800000034
  0
LINE
  5
3A6
100
AcDbEntity
  8
0
  6
CONTINUOUS
 62
             2
100
AcDbLine
 10
739.10000000000036
 20
704.55002800000034
 11
732.00000000000091
 21
704.55002800000034
  0
LINE
  5
3A5
100
AcDbEntity
  8
0
  6
CONTINUOUS
 62
             2
100
AcDbLine
 10
732.00000000000091
 20
704.55002800000034
 11
731.50000000000045
 21
698.20002799999997
  0
LINE
  5
3A4
100
AcDbEntity
  8
0
  6
CONTINUOUS
 62
             2
100
AcDbLine
 10
715.00050000000056
 20
704.54952800000024
 11
732.00000000000091
 21
704.54952800000024
  0
LINE
  5
3A3
100
AcDbEntity
  8
0
  6
CONTINUOUS
 62
             2
100
AcDbLine
 10
734.00000000000045
 20
714.54952800000024
 11
713.00000000000091
 21
714.54952800000024
  0
LINE
  5
3A2
100
AcDbEntity
  8
0
  6
CONTINUOUS
 62
             2
100
AcDbLine
 10
713.00000000000091
 20
723.20002799999997
 11
734.00000000000045
 21
723.20002799999997
  0
LINE
  5
3A1
100
AcDbEntity
  8
0
  6
DOT_CENTER
 62
             1
100
AcDbLine
 10
723.50000000000045
 20
741.19952799999987
 11
723.50000000000045
 21
693.52395055077159
  0
LINE
  5
3A0
100
AcDbEntity
  8
0
  6
DOT_CENTER
 62
             1
100
AcDbLine
 10
1218.9175
 20
541.29999999999927
 11
1258.8494999999989
 21
541.29999999999927
  0
LINE
  5
39F
100
AcDbEntity
  8
0
  6
DOT_CENTER
 62
             1
100
AcDbLine
 10
1240.0
 20
560.2569999999987
 11
1240.0
 21
522.45749999999862
  0
LINE
  5
39E
100
AcDbEntity
  8
1
  6
CONTINUOUS
 62
             2
100
AcDbLine
 10
1453.9989999999989
 20
907.00000000000091
 11
1453.9989999999989
 21
895.00000000000091
  0
LINE
  5
39D
100
AcDbEntity
  8
1
  6
CONTINUOUS
 62
             2
100
AcDbLine
 10
1485.999
 20
907.00000000000091
 11
1453.9989999999989
 21
907.00000000000091
  0
LINE
  5
39C
100
AcDbEntity
  8
1
  6
CONTINUOUS
 62
             2
100
AcDbLine
 10
1485.999
 20
895.00000000000091
 11
1485.999
 21
907.00000000000091
  0
LINE
  5
39B
100
AcDbEntity
  8
1
  6
CONTINUOUS
 62
             2
100
AcDbLine
 10
1453.9989999999989
 20
895.00000000000091
 11
1485.999
 21
895.00000000000091
  0
LINE
  5
39A
100
AcDbEntity
  8
1
  6
DOT_CENTER
 62
             1
100
AcDbLine
 10
1469.9999999999991
 20
907.00000000000091
 11
1469.9999999999991
 21
895.00000000000091
  0
LINE
  5
399
100
AcDbEntity
  8
0
  6
CONTINUOUS
 62
             2
100
AcDbLine
 10
1480.500499999999
 20
923.5
 11
1496.5009999999991
 21
923.5
  0
LINE
  5
398
100
AcDbEntity
  8
0
  6
CONTINUOUS
 62
             2
100
AcDbLine
 10
1496.5009999999991
 20
923.5
 11
1496.5009999999991
 21
916.68000000000029
  0
LINE
  5
397
100
AcDbEntity
  8
0
  6
CONTINUOUS
 62
             2
100
AcDbLine
 10
1496.5009999999991
 20
916.68000000000029
 11
1514.5009999999991
 21
916.68000000000029
  0
LINE
  5
396
100
AcDbEntity
  8
0
  6
CONTINUOUS
 62
             2
100
AcDbLine
 10
1514.5009999999991
 20
916.68000000000029
 11
1514.5009999999991
 21
951.32099999999991
  0
LINE
  5
395
100
AcDbEntity
  8
0
  6
CONTINUOUS
 62
             2
100
AcDbLine
 10
1514.5009999999991
 20
951.32099999999991
 11
1496.5009999999991
 21
951.32099999999991
  0
LINE
  5
394
100
AcDbEntity
  8
0
  6
CONTINUOUS
 62
             2
100
AcDbLine
 10
1496.5009999999991
 20
951.32099999999991
 11
1496.5009999999991
 21
944.5
  0
LINE
  5
393
100
AcDbEntity
  8
0
  6
CONTINUOUS
 62
             2
100
AcDbLine
 10
1496.5009999999991
 20
944.5
 11
1459.5009999999991
 21
944.5
  0
LINE
  5
392
100
AcDbEntity
  8
0
  6
CONTINUOUS
 62
             2
100
AcDbLine
 10
1459.5009999999991
 20
944.5
 11
1459.5009999999991
 21
915.16049999999996
  0
LINE
  5
391
100
AcDbEntity
  8
0
  6
CONTINUOUS
 62
             2
100
AcDbLine
 10
1459.5009999999991
 20
915.16049999999996
 11
1460.040999999999
 21
915.16049999999996
  0
LINE
  5
390
100
AcDbEntity
  8
0
  6
CONTINUOUS
 62
             2
100
AcDbLine
 10
1460.040999999999
 20
915.16049999999996
 11
1460.5204999999989
 21
907.0
  0
LINE
  5
38F
100
AcDbEntity
  8
0
  6
CONTINUOUS
 62
             2
100
AcDbLine
 10
1460.5204999999989
 20
907.0
 11
1479.480499999999
 21
907.0
  0
LINE
  5
38E
100
AcDbEntity
  8
0
  6
CONTINUOUS
 62
             2
100
AcDbLine
 10
1479.480499999999
 20
907.0
 11
1479.9609999999991
 21
915.16049999999996
  0
LINE
  5
38D
100
AcDbEntity
  8
0
  6
CONTINUOUS
 62
             2
100
AcDbLine
 10
1479.9609999999991
 20
915.16049999999996
 11
1480.500499999999
 21
915.16049999999996
  0
LINE
  5
38C
100
AcDbEntity
  8
0
  6
CONTINUOUS
 62
             2
100
AcDbLine
 10
1480.500499999999
 20
915.16049999999996
 11
1480.500499999999
 21
923.5
  0
LINE
  5
38B
100
AcDbEntity
  8
0
  6
CONTINUOUS
 62
             2
100
AcDbLine
 10
1496.5009999999991
 20
944.5
 11
1496.5009999999991
 21
923.5
  0
LINE
  5
38A
100
AcDbEntity
  8
0
  6
CONTINUOUS
 62
             2
100
AcDbLine
 10
1479.9609999999991
 20
915.16049999999996
 11
1460.040999999999
 21
915.16049999999996
  0
LINE
  5
389
100
AcDbEntity
  8
0
  6
DOT_CENTER
 62
             1
100
AcDbLine
 10
1469.9999999999991
 20
949.5
 11
1469.9999999999991
 21
903.40727054608601
  0
LINE
  5
388
100
AcDbEntity
  8
0
  6
DOT_CENTER
 62
             1
100
AcDbLine
 10
1454.5009999999991
 20
934.0
 11
1514.5009999999991
 21
934.0
  0
LINE
  5
387
100
AcDbEntity
  8
1
  6
DOT_CENTER
 62
             1
100
AcDbLine
 10
1848.7159999999999
 20
524.99999999999977
 11
1891.2995000000001
 21
524.99999999999977
  0
LINE
  5
386
100
AcDbEntity
  8
1
  6
DOT_CENTER
 62
             1
100
AcDbLine
 10
1870.0
 20
546.27800000000002
 11
1870.0
 21
514.99999999999977
  0
LINE
  5
385
100
AcDbEntity
  8
1
  6
CONTINUOUS
 62
             2
100
AcDbLine
 10
1862.6462594552161
 20
1686.8499999999999
 11
1877.3537405447839
 21
1686.8499999999999
  0
LINE
  5
384
100
AcDbEntity
  8
1
  6
CONTINUOUS
 62
             2
100
AcDbLine
 10
1862.6462594552149
 20
1693.1500000000001
 11
1877.3537405447851
 21
1693.1500000000001
  0
LINE
  5
383
100
AcDbEntity
  8
1
  6
CONTINUOUS
 62
             2
100
AcDbLine
 10
1856.849999999999
 20
1693.1500000000001
 11
1862.6462594552149
 21
1693.1500000000001
  0
LINE
  5
382
100
AcDbEntity
  8
1
  6
CONTINUOUS
 62
             2
100
AcDbLine
 10
1856.849999999999
 20
1686.8499999999999
 11
1862.6462594552161
 21
1686.8499999999999
  0
LINE
  5
381
100
AcDbEntity
  8
1
  6
CONTINUOUS
 62
             2
100
AcDbLine
 10
1877.3537405447839
 20
1686.8499999999999
 11
1883.1500000000001
 21
1686.8499999999999
  0
LINE
  5
380
100
AcDbEntity
  8
1
  6
CONTINUOUS
 62
             2
100
AcDbLine
 10
1877.3537405447851
 20
1693.1500000000001
 11
1883.1500000000001
 21
1693.1500000000001
  0
LINE
  5
37F
100
AcDbEntity
  8
0
  6
DOT_CENTER
 62
             1
100
AcDbLine
 10
1870.0
 20
1677.0
 11
1870.0
 21
1703.0
  0
LINE
  5
37E
100
AcDbEntity
  8
0
  6
DOT_CENTER
 62
             1
100
AcDbLine
 10
1848.7004999999999
 20
1690.0
 11
1891.3009999999999
 21
1690.0
  0
LINE
  5
37D
100
AcDbEntity
  8
1
  6
DOTTED
 62
             3
100
AcDbLine
 10
376.80000000000052
 20
514.99999999999955
 11
376.80000000000058
 21
478.19999999999982
  0
LINE
  5
37C
100
AcDbEntity
  8
1
  6
DOTTED
 62
             3
100
AcDbLine
 10
703.2000000000005
 20
514.99999999999955
 11
703.2000000000005
 21
478.19999999999982
  0
LINE
  5
37B
100
AcDbEntity
  8
1
  6
DOTTED
 62
             3
100
AcDbLine
 10
746.80000000000007
 20
478.19999999999987
 11
746.80000000000007
 21
515.0
  0
LINE
  5
37A
100
AcDbEntity
  8
1
  6
DOTTED
 62
             3
100
AcDbLine
 10
360.0
 20
478.19999999999982
 11
720.0
 21
478.19999999999982
  0
LINE
  5
379
100
AcDbEntity
  8
1
  6
DOTTED
 62
             3
100
AcDbLine
 10
333.19999999999999
 20
514.99999999999909
 11
333.19999999999999
 21
478.19999999999987
  0
LINE
  5
378
100
AcDbEntity
  8
1
  6
CONTINUOUS
 62
             2
100
AcDbLine
 10
360.0
 20
514.99999999999932
 11
360.0
 21
474.99999999999989
  0
LINE
  5
377
100
AcDbEntity
  8
1
  6
CONTINUOUS
 62
             2
100
AcDbLine
 10
330.0
 20
478.19999999999982
 11
360.0
 21
478.19999999999982
  0
LINE
  5
376
100
AcDbEntity
  8
1
  6
CONTINUOUS
 62
             2
100
AcDbLine
 10
720.0
 20
478.19999999999982
 11
749.99999999999955
 21
478.19999999999982
  0
LINE
  5
375
100
AcDbEntity
  8
1
  6
CONTINUOUS
 62
             2
100
AcDbLine
 10
720.0
 20
474.99999999999989
 11
720.0
 21
514.99999999999955
  0
LINE
  5
374
100
AcDbEntity
  8
0
  6
CONTINUOUS
 62
             7
100
AcDbLine
 10
345.0
 20
488.6930382638493
 11
345.0
 21
465.72740719588762
  0
LINE
  5
373
100
AcDbEntity
  8
0
  6
CONTINUOUS
 62
             7
100
AcDbLine
 10
735.0
 20
488.6930382638493
 11
735.0
 21
465.72740719588762
  0
LINE
  5
372
100
AcDbEntity
  8
0
  6
CONTINUOUS
 62
             2
100
AcDbLine
 10
330.0
 20
514.99999999999909
 11
330.0
 21
474.99999999999989
  0
LINE
  5
371
100
AcDbEntity
  8
0
  6
CONTINUOUS
 62
             2
100
AcDbLine
 10
750.0
 20
515.0
 11
330.0
 21
514.99999999999909
  0
LINE
  5
370
100
AcDbEntity
  8
0
  6
CONTINUOUS
 62
             2
100
AcDbLine
 10
750.0
 20
474.99999999999989
 11
750.0
 21
515.0
  0
LINE
  5
36F
100
AcDbEntity
  8
0
  6
CONTINUOUS
 62
             2
100
AcDbLine
 10
330.0
 20
474.99999999999989
 11
750.0
 21
474.99999999999989
  0
LINE
  5
36E
100
AcDbEntity
  8
0
  6
DOT_CENTER
 62
             1
100
AcDbLine
 10
1270.0
 20
932.51500000000033
 11
1270.0
 21
895.0
  0
LINE
  5
36D
100
AcDbEntity
  8
0
  6
CONTINUOUS
 62
             2
100
AcDbLine
 10
1255.5
 20
908.00000000000091
 11
1284.4994999999999
 21
908.00000000000091
  0
LINE
  5
36C
100
AcDbEntity
  8
0
  6
CONTINUOUS
 62
             2
100
AcDbLine
 10
1235.5005000000001
 20
895.00000000000091
 11
1235.5005000000001
 21
896.00000000000091
  0
LINE
  5
36B
100
AcDbEntity
  8
0
  6
CONTINUOUS
 62
             2
100
AcDbLine
 10
1304.4994999999999
 20
895.00000000000091
 11
1235.5005000000001
 21
895.00000000000091
  0
LINE
  5
36A
100
AcDbEntity
  8
0
  6
CONTINUOUS
 62
             2
100
AcDbLine
 10
1304.4994999999999
 20
896.00000000000091
 11
1304.4994999999999
 21
895.00000000000091
  0
LINE
  5
369
100
AcDbEntity
  8
0
  6
CONTINUOUS
 62
             2
100
AcDbLine
 10
1284.4994999999999
 20
896.00000000000091
 11
1304.4994999999999
 21
896.00000000000091
  0
LINE
  5
368
100
AcDbEntity
  8
0
  6
CONTINUOUS
 62
             2
100
AcDbLine
 10
1284.4994999999999
 20
908.00000000000091
 11
1284.4994999999999
 21
896.00000000000091
  0
LINE
  5
367
100
AcDbEntity
  8
0
  6
CONTINUOUS
 62
             2
100
AcDbLine
 10
1298.0
 20
908.00000000000091
 11
1284.4994999999999
 21
908.00000000000091
  0
LINE
  5
366
100
AcDbEntity
  8
0
  6
CONTINUOUS
 62
             2
100
AcDbLine
 10
1298.0
 20
930.00000000000091
 11
1298.0
 21
908.00000000000091
  0
LINE
  5
365
100
AcDbEntity
  8
0
  6
CONTINUOUS
 62
             2
100
AcDbLine
 10
1241.9994999999999
 20
930.00000000000091
 11
1298.0
 21
930.00000000000091
  0
LINE
  5
364
100
AcDbEntity
  8
0
  6
CONTINUOUS
 62
             2
100
AcDbLine
 10
1241.9994999999999
 20
908.00000000000091
 11
1241.9994999999999
 21
930.00000000000091
  0
LINE
  5
363
100
AcDbEntity
  8
0
  6
CONTINUOUS
 62
             2
100
AcDbLine
 10
1255.5
 20
908.00000000000091
 11
1241.9994999999999
 21
908.00000000000091
  0
LINE
  5
362
100
AcDbEntity
  8
0
  6
CONTINUOUS
 62
             2
100
AcDbLine
 10
1255.5
 20
896.00000000000091
 11
1255.5
 21
908.00000000000091
  0
LINE
  5
361
100
AcDbEntity
  8
0
  6
CONTINUOUS
 62
             2
100
AcDbLine
 10
1235.5005000000001
 20
896.00000000000091
 11
1255.5
 21
896.00000000000091
  0
LINE
  5
360
100
AcDbEntity
  8
0
  6
CONTINUOUS
 62
             2
100
AcDbLine
 10
1255.5
 20
896.00000000000091
 11
1284.4994999999999
 21
896.00000000000091
  0
LINE
  5
35F
100
AcDbEntity
  8
1
  6
DOTTED
 62
             3
100
AcDbLine
 10
1215.0
 20
514.99999999999909
 11
1215.0
 21
478.19999999999987
  0
LINE
  5
35E
100
AcDbEntity
  8
1
  6
DOTTED
 62
             3
100
AcDbLine
 10
1545.0
 20
514.99999999999909
 11
1545.0
 21
478.19999999999982
  0
LINE
  5
35D
100
AcDbEntity
  8
1
  6
DOTTED
 62
             3
100
AcDbLine
 10
1896.8
 20
478.19999999999987
 11
1896.8
 21
515.0
  0
LINE
  5
35C
100
AcDbEntity
  8
1
  6
DOTTED
 62
             3
100
AcDbLine
 10
1193.2
 20
478.19999999999987
 11
1896.8
 21
478.19999999999987
  0
LINE
  5
35B
100
AcDbEntity
  8
1
  6
DOTTED
 62
             3
100
AcDbLine
 10
1193.2
 20
514.99999999999909
 11
1193.2
 21
478.19999999999987
  0
LINE
  5
35A
100
AcDbEntity
  8
1
  6
CONTINUOUS
 62
             2
100
AcDbLine
 10
1186.8
 20
478.19999999999982
 11
1150.0
 21
478.19999999999982
  0
LINE
  5
359
100
AcDbEntity
  8
1
  6
CONTINUOUS
 62
             2
100
AcDbLine
 10
1150.0
 20
478.19999999999982
 11
1150.0
 21
474.99999999999989
  0
LINE
  5
358
100
AcDbEntity
  8
1
  6
CONTINUOUS
 62
             2
100
AcDbLine
 10
1186.8
 20
478.19999999999982
 11
1186.8
 21
514.99999999999909
  0
LINE
  5
357
100
AcDbEntity
  8
1
  6
CONTINUOUS
 62
             7
100
AcDbLine
 10
1165.0
 20
489.73050637203681
 11
1165.0
 21
467.54186662213567
  0
LINE
  5
356
100
AcDbEntity
  8
1
  6
CONTINUOUS
 62
             2
100
AcDbLine
 10
1903.1999999999989
 20
515.0
 11
1186.8
 21
514.99999999999909
  0
LINE
  5
355
100
AcDbEntity
  8
1
  6
CONTINUOUS
 62
             2
100
AcDbLine
 10
1150.0
 20
474.99999999999989
 11
1940.0
 21
474.99999999999989
  0
LINE
  5
354
100
AcDbEntity
  8
1
  6
CONTINUOUS
 62
             2
100
AcDbLine
 10
1940.0
 20
478.19999999999982
 11
1903.1999999999989
 21
478.19999999999982
  0
LINE
  5
353
100
AcDbEntity
  8
1
  6
CONTINUOUS
 62
             2
100
AcDbLine
 10
1940.0
 20
478.19999999999982
 11
1940.0
 21
474.99999999999989
  0
LINE
  5
352
100
AcDbEntity
  8
1
  6
CONTINUOUS
 62
             2
100
AcDbLine
 10
1903.1999999999989
 20
515.0
 11
1903.1999999999989
 21
478.19999999999982
  0
LINE
  5
351
100
AcDbEntity
  8
1
  6
CONTINUOUS
 62
             7
100
AcDbLine
 10
1925.0
 20
484.18162938824662
 11
1925.0
 21
469.45724601068002
  0
LINE
  5
350
100
AcDbEntity
  8
0
  6
CONTINUOUS
 62
             2
100
AcDbLine
 10
1190.0
 20
514.99999999999909
 11
1190.0
 21
474.99999999999989
  0
LINE
  5
34F
100
AcDbEntity
  8
0
  6
CONTINUOUS
 62
             2
100
AcDbLine
 10
1900.0
 20
474.99999999999989
 11
1900.0
 21
514.99999999999909
  0
LINE
  5
34E
100
AcDbEntity
  8
0
  6
CONTINUOUS
 62
             2
100
AcDbLine
 10
1190.0
 20
1690.0
 11
1190.0
 21
1720.0
  0
LINE
  5
34D
100
AcDbEntity
  8
1
  6
CONTINUOUS
 62
             2
100
AcDbLine
 10
1900.0
 20
1690.0
 11
1900.0
 21
1720.0
  0
LINE
  5
34C
100
AcDbEntity
  8
1
  6
CONTINUOUS
 62
             2
100
AcDbLine
 10
1900.0
 20
1330.0000000000041
 11
1900.0
 21
1690.0
  0
LINE
  5
34B
100
AcDbEntity
  8
0
  6
CONTINUOUS
 62
             2
100
AcDbLine
 10
1190.0
 20
1330.0
 11
1190.0
 21
1357.4504902432011
  0
LINE
  5
34A
100
AcDbEntity
  8
1
  6
CONTINUOUS
 62
             2
100
AcDbLine
 10
1150.0
 20
1690.0
 11
1190.0
 21
1690.0
  0
LINE
  5
349
100
AcDbEntity
  8
1
  6
CONTINUOUS
 62
             2
100
AcDbLine
 10
1150.0
 20
1720.0
 11
1150.0
 21
1690.0
  0
LINE
  5
348
100
AcDbEntity
  8
0
  6
DOT_CENTER
 62
             1
100
AcDbLine
 10
1165.0
 20
1694.4959760137081
 11
1165.0
 21
1715.5708475157089
  0
LINE
  5
347
100
AcDbEntity
  8
0
  6
DOT_CENTER
 62
             1
100
AcDbLine
 10
1153.307852655631
 20
1705.0
 11
1175.2078526556311
 21
1705.0
  0
LINE
  5
346
100
AcDbEntity
  8
1
  6
CONTINUOUS
 62
             2
100
AcDbLine
 10
1186.8
 20
1720.0
 11
1186.8
 21
1690.0
  0
LINE
  5
345
100
AcDbEntity
  8
1
  6
CONTINUOUS
 62
             2
100
AcDbLine
 10
1190.0
 20
1330.0
 11
1150.0
 21
1330.0
  0
LINE
  5
344
100
AcDbEntity
  8
1
  6
CONTINUOUS
 62
             2
100
AcDbLine
 10
1186.8
 20
1330.0
 11
1186.8
 21
1300.0
  0
LINE
  5
343
100
AcDbEntity
  8
0
  6
DOT_CENTER
 62
             1
100
AcDbLine
 10
1175.2078526556311
 20
1315.000000000002
 11
1153.007852655631
 21
1315.000000000002
  0
LINE
  5
342
100
AcDbEntity
  8
0
  6
DOT_CENTER
 62
             1
100
AcDbLine
 10
1165.0
 20
1304.6291524842929
 11
1165.0
 21
1325.704023986292
  0
LINE
  5
341
100
AcDbEntity
  8
1
  6
CONTINUOUS
 62
             2
100
AcDbLine
 10
1150.0
 20
1330.0
 11
1150.0
 21
1300.0
  0
LINE
  5
340
100
AcDbEntity
  8
1
  6
CONTINUOUS
 62
             2
100
AcDbLine
 10
1150.0
 20
1300.0
 11
1610.7559373534641
 21
1300.0
  0
LINE
  5
33F
100
AcDbEntity
  8
0
  6
DOT_CENTER
 62
             1
100
AcDbLine
 10
1935.992147344369
 20
1315.0000000000041
 11
1914.092147344368
 21
1315.0000000000041
  0
LINE
  5
33E
100
AcDbEntity
  8
0
  6
DOT_CENTER
 62
             1
100
AcDbLine
 10
1925.0
 20
1325.704023986294
 11
1925.0
 21
1304.6291524842929
  0
LINE
  5
33D
100
AcDbEntity
  8
1
  6
CONTINUOUS
 62
             2
100
AcDbLine
 10
1903.1999999999989
 20
1330.0000000000041
 11
1903.1999999999989
 21
1300.0000000000041
  0
LINE
  5
33C
100
AcDbEntity
  8
1
  6
CONTINUOUS
 62
             2
100
AcDbLine
 10
1940.0
 20
1300.0
 11
1940.0
 21
1330.0000000000041
  0
LINE
  5
33B
100
AcDbEntity
  8
1
  6
CONTINUOUS
 62
             2
100
AcDbLine
 10
1940.0
 20
1330.0000000000041
 11
1900.0
 21
1330.0000000000041
  0
LINE
  5
33A
100
AcDbEntity
  8
1
  6
CONTINUOUS
 62
             2
100
AcDbLine
 10
1900.0
 20
1690.0
 11
1940.0
 21
1690.0
  0
LINE
  5
339
100
AcDbEntity
  8
1
  6
CONTINUOUS
 62
             2
100
AcDbLine
 10
1940.0
 20
1690.0
 11
1940.0
 21
1720.0
  0
LINE
  5
338
100
AcDbEntity
  8
1
  6
CONTINUOUS
 62
             2
100
AcDbLine
 10
1903.1999999999989
 20
1720.0
 11
1903.1999999999989
 21
1690.0
  0
LINE
  5
337
100
AcDbEntity
  8
0
  6
DOT_CENTER
 62
             1
100
AcDbLine
 10
1925.0
 20
1715.5708475157089
 11
1925.0
 21
1694.4959760137081
  0
LINE
  5
336
100
AcDbEntity
  8
0
  6
DOT_CENTER
 62
             1
100
AcDbLine
 10
1914.092147344368
 20
1705.0
 11
1935.7921473443689
 21
1705.0
  0
LINE
  5
335
100
AcDbEntity
  8
0
  6
CONTINUOUS
 62
             2
100
AcDbLine
 10
1190.0
 20
1300.0
 11
1190.0
 21
1330.0
  0
LINE
  5
334
100
AcDbEntity
  8
1
  6
CONTINUOUS
 62
             2
100
AcDbLine
 10
1940.0
 20
1720.0
 11
1740.000500000001
 21
1720.0
  0
LINE
  5
333
100
AcDbEntity
  8
1
  6
CONTINUOUS
 62
             2
100
AcDbLine
 10
1900.0
 20
1300.0
 11
1900.0
 21
1330.0000000000041
  0
LINE
  5
332
100
AcDbEntity
  8
0
  6
CONTINUOUS
 62
             2
100
AcDbLine
 10
1193.2
 20
1716.8000000000011
 11
1680.000500000001
 21
1716.8000000000011
  0
LINE
  5
331
100
AcDbEntity
  8
0
  6
CONTINUOUS
 62
             2
100
AcDbLine
 10
1896.8000000000011
 20
1716.8000000000011
 11
1896.8000000000011
 21
1303.2
  0
LINE
  5
330
100
AcDbEntity
  8
0
  6
CONTINUOUS
 62
             2
100
AcDbLine
 10
1896.8000000000011
 20
1303.2
 11
1814.6879930167599
 21
1303.2
  0
LINE
  5
32F
100
AcDbEntity
  8
0
  6
CONTINUOUS
 62
             2
100
AcDbLine
 10
1193.2
 20
1303.2
 11
1193.2
 21
1340.0
  0
LINE
  5
32E
100
AcDbEntity
  8
0
  6
CONTINUOUS
 62
             2
100
AcDbLine
 10
1750.000500000001
 20
1583.9990000000021
 11
1750.000500000001
 21
1647.9990000000021
  0
LINE
  5
32D
100
AcDbEntity
  8
0
  6
CONTINUOUS
 62
             2
100
AcDbLine
 10
1750.000500000001
 20
1647.9990000000021
 11
1670.000500000001
 21
1647.9990000000021
  0
LINE
  5
32C
100
AcDbEntity
  8
0
  6
CONTINUOUS
 62
             2
100
AcDbLine
 10
1670.000500000001
 20
1647.9990000000021
 11
1670.000500000001
 21
1583.9990000000021
  0
LINE
  5
32B
100
AcDbEntity
  8
0
  6
CONTINUOUS
 62
             2
100
AcDbLine
 10
1670.000500000001
 20
1583.9990000000021
 11
1750.000500000001
 21
1583.9990000000021
  0
LINE
  5
32A
100
AcDbEntity
  8
0
  6
DOT_CENTER
 62
             1
100
AcDbLine
 10
1666.000500000001
 20
1615.9985000000011
 11
1754.000500000001
 21
1615.9985000000011
  0
LINE
  5
329
100
AcDbEntity
  8
1
  6
CONTINUOUS
 62
             2
100
AcDbLine
 10
1716.0
 20
1647.9990000000021
 11
1716.0
 21
1649.131477767781
  0
LINE
  5
328
100
AcDbEntity
  8
1
  6
CONTINUOUS
 62
             2
100
AcDbLine
 10
1704.0
 20
1647.9990000000021
 11
1716.0
 21
1647.9990000000021
  0
LINE
  5
327
100
AcDbEntity
  8
1
  6
DOT_CENTER
 62
             1
100
AcDbLine
 10
1710.0
 20
1646.527449173564
 11
1710.0
 21
1648.2004999999999
  0
LINE
  5
326
100
AcDbEntity
  8
0
  6
DOT_CENTER
 62
             1
100
AcDbLine
 10
1470.0
 20
1467.999500000001
 11
1470.0
 21
1496.4990000000021
  0
LINE
  5
325
100
AcDbEntity
  8
1
  6
CONTINUOUS
 62
             2
100
AcDbLine
 10
1750.000500000001
 20
1496.000000000002
 11
1750.000500000001
 21
1576.000000000002
  0
LINE
  5
324
100
AcDbEntity
  8
1
  6
CONTINUOUS
 62
             2
100
AcDbLine
 10
1670.000500000001
 20
1496.000000000002
 11
1750.000500000001
 21
1496.000000000002
  0
LINE
  5
323
100
AcDbEntity
  8
1
  6
CONTINUOUS
 62
             2
100
AcDbLine
 10
1670.000500000001
 20
1576.000000000002
 11
1670.000500000001
 21
1496.000000000002
  0
LINE
  5
322
100
AcDbEntity
  8
1
  6
CONTINUOUS
 62
             2
100
AcDbLine
 10
1750.000500000001
 20
1576.000000000002
 11
1670.000500000001
 21
1576.000000000002
  0
LINE
  5
321
100
AcDbEntity
  8
1
  6
DOT_CENTER
 62
             1
100
AcDbLine
 10
1700.000500000001
 20
1544.000000000002
 11
1720.000500000001
 21
1544.000000000002
  0
LINE
  5
320
100
AcDbEntity
  8
1
  6
DOT_CENTER
 62
             1
100
AcDbLine
 10
1710.000500000001
 20
1491.7526284190119
 11
1710.000500000001
 21
1578.2526284190119
  0
LINE
  5
31F
100
AcDbEntity
  8
1
  6
DOT_CENTER
 62
             1
100
AcDbLine
 10
1670.000500000001
 20
1525.000000000002
 11
1720.000500000001
 21
1525.000000000002
  0
LINE
  5
31E
100
AcDbEntity
  8
0
  6
CONTINUOUS
 62
             2
100
AcDbLine
 10
1514.998964493027
 20
1546.3494999999141
 11
1514.999086491981
 21
1503.6495000000889
  0
LINE
  5
31D
100
AcDbEntity
  8
0
  6
CONTINUOUS
 62
             2
100
AcDbLine
 10
1670.0004040612989
 20
1546.349999999914
 11
1670.0005260602529
 21
1503.6500000000881
  0
LINE
  5
31C
100
AcDbEntity
  8
0
  6
CONTINUOUS
 62
             2
100
AcDbLine
 10
1514.999086491981
 20
1503.6495000000889
 11
1670.0005260602529
 21
1503.6500000000881
  0
LINE
  5
31B
100
AcDbEntity
  8
0
  6
CONTINUOUS
 62
             2
100
AcDbLine
 10
1514.998964493027
 20
1546.3494999999141
 11
1670.0004040612989
 21
1546.349999999914
  0
LINE
  5
31A
100
AcDbEntity
  8
0
  6
DOT_CENTER
 62
             1
100
AcDbLine
 10
1514.999025492504
 20
1524.9995000000019
 11
1670.0004650607759
 21
1525.000000000002
  0
LINE
  5
319
100
AcDbEntity
  8
0
  6
CONTINUOUS
 62
             2
100
AcDbLine
 10
1514.999
 20
1553.4990000000021
 11
1514.999
 21
1496.4990000000021
  0
LINE
  5
318
100
AcDbEntity
  8
0
  6
CONTINUOUS
 62
             2
100
AcDbLine
 10
1514.999
 20
1496.4990000000021
 11
1469.999
 21
1496.4990000000021
  0
LINE
  5
317
100
AcDbEntity
  8
0
  6
CONTINUOUS
 62
             2
100
AcDbLine
 10
1469.914933755158
 20
1553.4998774854
 11
1514.999
 21
1553.4990000000021
  0
LINE
  5
316
100
AcDbEntity
  8
1
  6
DOT_CENTER
 62
             1
100
AcDbLine
 10
1436.4994999999999
 20
1524.999500000001
 11
1514.999
 21
1524.999500000001
  0
LINE
  5
315
100
AcDbEntity
  8
1
  6
DOT_CENTER
 62
             1
100
AcDbLine
 10
1470.0
 20
1558.4990000000021
 11
1470.0
 21
1491.4990000000021
  0
LINE
  5
314
100
AcDbEntity
  8
1
  6
DOT_CENTER
 62
             1
100
AcDbLine
 10
1755.1219023254801
 20
964.00000000000045
 11
1670.000500000001
 21
964.00000000000045
  0
LINE
  5
313
100
AcDbEntity
  8
1
  6
DOT_CENTER
 62
             1
100
AcDbLine
 10
1710.000500000001
 20
1001.08735110497
 11
1710.000500000001
 21
924.47249746341049
  0
LINE
  5
312
100
AcDbEntity
  8
1
  6
CONTINUOUS
 62
             2
100
AcDbLine
 10
1670.000500000001
 20
931.00000000000045
 11
1750.000500000001
 21
931.00000000000045
  0
LINE
  5
311
100
AcDbEntity
  8
1
  6
CONTINUOUS
 62
             2
100
AcDbLine
 10
1670.000500000001
 20
996.00000000000045
 11
1670.000500000001
 21
931.00000000000045
  0
LINE
  5
310
100
AcDbEntity
  8
1
  6
CONTINUOUS
 62
             2
100
AcDbLine
 10
1750.000500000001
 20
996.00000000000045
 11
1670.000500000001
 21
996.00000000000045
  0
LINE
  5
30F
100
AcDbEntity
  8
1
  6
CONTINUOUS
 62
             2
100
AcDbLine
 10
1750.000500000001
 20
931.00000000000045
 11
1750.000500000001
 21
996.00000000000045
  0
LINE
  5
30E
100
AcDbEntity
  8
1
  6
CONTINUOUS
 62
             2
100
AcDbLine
 10
1695.000500000001
 20
996.00000000000045
 11
1695.000500000001
 21
1006.000000000001
  0
LINE
  5
30D
100
AcDbEntity
  8
1
  6
CONTINUOUS
 62
             2
100
AcDbLine
 10
1675.000500000001
 20
996.00000000000045
 11
1695.000500000001
 21
996.00000000000045
  0
LINE
  5
30C
100
AcDbEntity
  8
1
  6
CONTINUOUS
 62
             2
100
AcDbLine
 10
1675.000500000001
 20
1006.000000000001
 11
1675.000500000001
 21
996.00000000000045
  0
LINE
  5
30B
100
AcDbEntity
  8
1
  6
CONTINUOUS
 62
             2
100
AcDbLine
 10
1695.000500000001
 20
1006.000000000001
 11
1675.000500000001
 21
1006.000000000001
  0
LINE
  5
30A
100
AcDbEntity
  8
1
  6
CONTINUOUS
 62
             2
100
AcDbLine
 10
1725.000500000001
 20
1006.000000000001
 11
1725.000500000001
 21
996.00000000000045
  0
LINE
  5
309
100
AcDbEntity
  8
1
  6
CONTINUOUS
 62
             2
100
AcDbLine
 10
1725.000500000001
 20
996.00000000000045
 11
1745.000500000001
 21
996.00000000000045
  0
LINE
  5
308
100
AcDbEntity
  8
1
  6
CONTINUOUS
 62
             2
100
AcDbLine
 10
1745.000500000001
 20
996.00000000000045
 11
1745.000500000001
 21
1006.000000000001
  0
LINE
  5
307
100
AcDbEntity
  8
1
  6
CONTINUOUS
 62
             2
100
AcDbLine
 10
1745.000500000001
 20
1006.000000000001
 11
1725.000500000001
 21
1006.000000000001
  0
LINE
  5
306
100
AcDbEntity
  8
0
  6
DOT_CENTER
 62
             1
100
AcDbLine
 10
1514.999
 20
964.00000000000136
 11
1670.000500000001
 21
964.00000000000045
  0
LINE
  5
305
100
AcDbEntity
  8
0
  6
CONTINUOUS
 62
             2
100
AcDbLine
 10
1514.999
 20
986.00000000000136
 11
1670.000500000001
 21
986.00000000000136
  0
LINE
  5
304
100
AcDbEntity
  8
0
  6
CONTINUOUS
 62
             2
100
AcDbLine
 10
1514.999
 20
942.00000000000136
 11
1670.000500000001
 21
942.00000000000136
  0
LINE
  5
303
100
AcDbEntity
  8
0
  6
CONTINUOUS
 62
             2
100
AcDbLine
 10
1670.000500000001
 20
986.00000000000136
 11
1670.000500000001
 21
942.00000000000136
  0
LINE
  5
302
100
AcDbEntity
  8
0
  6
CONTINUOUS
 62
             2
100
AcDbLine
 10
1514.999
 20
942.00000000000136
 11
1514.999
 21
986.00000000000136
  0
LINE
  5
301
100
AcDbEntity
  8
0
  6
CONTINUOUS
 62
             2
100
AcDbLine
 10
1492.0
 20
899.0
 11
1485.999
 21
899.0
  0
LINE
  5
300
100
AcDbEntity
  8
0
  6
CONTINUOUS
 62
             2
100
AcDbLine
 10
1448.0
 20
899.0
 11
1435.0
 21
899.00000000000091
  0
LINE
  5
2FF
100
AcDbEntity
  8
0
  6
CONTINUOUS
 62
             2
100
AcDbLine
 10
1448.0
 20
919.00000000000136
 11
1441.4994999999999
 21
919.00000000000136
  0
LINE
  5
2FE
100
AcDbEntity
  8
0
  6
CONTINUOUS
 62
             2
100
AcDbLine
 10
1492.0
 20
919.00000000000136
 11
1480.500499999999
 21
919.00000000000136
  0
LINE
  5
2FD
100
AcDbEntity
  8
0
  6
CONTINUOUS
 62
             2
100
AcDbLine
 10
1435.0
 20
895.00000000000091
 11
1505.0
 21
895.00000000000091
  0
LINE
  5
2FC
100
AcDbEntity
  8
0
  6
CONTINUOUS
 62
             2
100
AcDbLine
 10
1505.0
 20
895.00000000000091
 11
1505.0
 21
899.00000000000091
  0
LINE
  5
2FB
100
AcDbEntity
  8
0
  6
CONTINUOUS
 62
             2
100
AcDbLine
 10
1505.0
 20
899.00000000000091
 11
1492.0
 21
899.0
  0
LINE
  5
2FA
100
AcDbEntity
  8
0
  6
CONTINUOUS
 62
             2
100
AcDbLine
 10
1435.0
 20
899.00000000000091
 11
1435.0
 21
895.00000000000091
  0
LINE
  5
2F9
100
AcDbEntity
  8
1
  6
CONTINUOUS
 62
             2
100
AcDbLine
 10
1448.0
 20
919.00000000000136
 11
1448.0
 21
899.0
  0
LINE
  5
2F8
100
AcDbEntity
  8
1
  6
CONTINUOUS
 62
             2
100
AcDbLine
 10
1492.0
 20
899.0
 11
1492.0
 21
919.00000000000136
  0
LINE
  5
2F7
100
AcDbEntity
  8
0
  6
CONTINUOUS
 62
             2
100
AcDbLine
 10
1441.4994999999999
 20
919.00000000000136
 11
1441.4994999999999
 21
967.50000000000136
  0
LINE
  5
2F6
100
AcDbEntity
  8
0
  6
CONTINUOUS
 62
             2
100
AcDbLine
 10
1466.499
 20
992.49950000000126
 11
1514.999
 21
992.49950000000126
  0
LINE
  5
2F5
100
AcDbEntity
  8
0
  6
CONTINUOUS
 62
             2
100
AcDbLine
 10
1514.999
 20
992.49950000000126
 11
1514.999
 21
942.0
  0
LINE
  5
2F4
100
AcDbEntity
  8
1
  6
DOT_CENTER
 62
             1
100
AcDbLine
 10
1454.2995000000001
 20
964.00000000000136
 11
1514.999
 21
964.00000000000136
  0
LINE
  5
2F3
100
AcDbEntity
  8
1
  6
DOT_CENTER
 62
             1
100
AcDbLine
 10
1470.0
 20
980.19950000000131
 11
1470.0
 21
944.5
  0
LINE
  5
2F2
100
AcDbEntity
  8
0
  6
CONTINUOUS
 62
             2
100
AcDbLine
 10
1751.000500000001
 20
930.99999999999955
 11
1750.000500000001
 21
931.00000000000045
  0
LINE
  5
2F1
100
AcDbEntity
  8
0
  6
CONTINUOUS
 62
             2
100
AcDbLine
 10
1669.000500000001
 20
930.99999999999955
 11
1669.000500000001
 21
942.00000000000045
  0
LINE
  5
2F0
100
AcDbEntity
  8
0
  6
DOTTED
 62
             3
100
AcDbLine
 10
1669.000500000001
 20
973.99999999999955
 11
1750.000500000001
 21
973.99999999999955
  0
LINE
  5
2EF
100
AcDbEntity
  8
0
  6
CONTINUOUS
 62
             2
100
AcDbLine
 10
1751.000500000001
 20
973.99999999999955
 11
1751.000500000001
 21
930.99999999999955
  0
LINE
  5
2EE
100
AcDbEntity
  8
0
  6
CONTINUOUS
 62
             2
100
AcDbLine
 10
1750.000500000001
 20
973.99999999999955
 11
1751.000500000001
 21
973.99999999999955
  0
LINE
  5
2ED
100
AcDbEntity
  8
0
  6
DOTTED
 62
             3
100
AcDbLine
 10
1750.000500000001
 20
931.00000000000045
 11
1669.000500000001
 21
930.99999999999955
  0
LINE
  5
2EC
100
AcDbEntity
  8
0
  6
DOTTED
 62
             3
100
AcDbLine
 10
1669.000500000001
 20
942.00000000000045
 11
1669.000500000001
 21
973.99999999999955
  0
LINE
  5
2EB
100
AcDbEntity
  8
1
  6
CONTINUOUS
 62
             2
100
AcDbLine
 10
549.5
 20
1006.000000000001
 11
529.5
 21
1006.000000000001
  0
LINE
  5
2EA
100
AcDbEntity
  8
1
  6
CONTINUOUS
 62
             2
100
AcDbLine
 10
549.5
 20
996.00000000000068
 11
549.5
 21
1006.000000000001
  0
LINE
  5
2E9
100
AcDbEntity
  8
1
  6
CONTINUOUS
 62
             2
100
AcDbLine
 10
529.5
 20
996.00000000000068
 11
549.5
 21
996.00000000000068
  0
LINE
  5
2E8
100
AcDbEntity
  8
1
  6
CONTINUOUS
 62
             2
100
AcDbLine
 10
529.5
 20
1006.000000000001
 11
529.5
 21
996.00000000000068
  0
LINE
  5
2E7
100
AcDbEntity
  8
1
  6
CONTINUOUS
 62
             2
100
AcDbLine
 10
499.5
 20
1006.000000000001
 11
479.5
 21
1006.000000000001
  0
LINE
  5
2E6
100
AcDbEntity
  8
1
  6
CONTINUOUS
 62
             2
100
AcDbLine
 10
479.5
 20
1006.000000000001
 11
479.5
 21
996.00000000000068
  0
LINE
  5
2E5
100
AcDbEntity
  8
1
  6
CONTINUOUS
 62
             2
100
AcDbLine
 10
479.5
 20
996.00000000000068
 11
499.5
 21
996.00000000000068
  0
LINE
  5
2E4
100
AcDbEntity
  8
1
  6
CONTINUOUS
 62
             2
100
AcDbLine
 10
499.5
 20
996.00000000000068
 11
499.5
 21
1006.000000000001
  0
LINE
  5
2E3
100
AcDbEntity
  8
1
  6
CONTINUOUS
 62
             2
100
AcDbLine
 10
474.5
 20
930.99999999999977
 11
496.99969364045683
 21
930.99999999999955
  0
LINE
  5
2E2
100
AcDbEntity
  8
1
  6
CONTINUOUS
 62
             2
100
AcDbLine
 10
554.5
 20
930.99999999999977
 11
554.5
 21
995.99999999999977
  0
LINE
  5
2E1
100
AcDbEntity
  8
1
  6
CONTINUOUS
 62
             2
100
AcDbLine
 10
554.5
 20
995.99999999999977
 11
474.5
 21
995.99999999999977
  0
LINE
  5
2E0
100
AcDbEntity
  8
1
  6
CONTINUOUS
 62
             2
100
AcDbLine
 10
474.5
 20
995.99999999999977
 11
474.5
 21
930.99999999999977
  0
LINE
  5
2DF
100
AcDbEntity
  8
1
  6
DOT_CENTER
 62
             1
100
AcDbLine
 10
469.89443400721029
 20
963.99999999999977
 11
496.99969365223131
 21
963.99999999999977
  0
LINE
  5
2DE
100
AcDbEntity
  8
0
  6
CONTINUOUS
 62
             2
100
AcDbLine
 10
473.50000000000051
 20
930.99999999999977
 11
393.50000000000051
 21
930.99999999999977
  0
LINE
  5
2DD
100
AcDbEntity
  8
0
  6
CONTINUOUS
 62
             2
100
AcDbLine
 10
393.50000000000051
 20
930.99999999999977
 11
393.50000000000051
 21
973.99999999999977
  0
LINE
  5
2DC
100
AcDbEntity
  8
0
  6
CONTINUOUS
 62
             2
100
AcDbLine
 10
393.50000000000051
 20
973.99999999999977
 11
473.50000000000051
 21
973.99999999999977
  0
LINE
  5
2DB
100
AcDbEntity
  8
0
  6
CONTINUOUS
 62
             2
100
AcDbLine
 10
473.50000000000051
 20
973.99999999999977
 11
473.50000000000051
 21
930.99999999999977
  0
LINE
  5
2DA
100
AcDbEntity
  8
0
  6
DOT_CENTER
 62
             1
100
AcDbLine
 10
433.50000000000051
 20
977.99999999999886
 11
433.50000000000051
 21
926.99949999999876
  0
LINE
  5
2D9
100
AcDbEntity
  8
0
  6
CONTINUOUS
 62
             2
100
AcDbLine
 10
393.50000000000051
 20
952.05550000000017
 11
387.95349999999962
 21
952.05550000000017
  0
LINE
  5
2D8
100
AcDbEntity
  8
0
  6
CONTINUOUS
 62
             2
100
AcDbLine
 10
393.50000000000051
 20
938.25549999999998
 11
393.50000000000051
 21
952.05550000000017
  0
LINE
  5
2D7
100
AcDbEntity
  8
0
  6
CONTINUOUS
 62
             2
100
AcDbLine
 10
384.4985000000006
 20
935.15549999999962
 11
384.4985000000006
 21
955.15450000000124
  0
LINE
  5
2D6
100
AcDbEntity
  8
0
  6
CONTINUOUS
 62
             2
100
AcDbLine
 10
362.4985000000006
 20
959.15550000000053
 11
384.4985000000006
 21
959.15550000000053
  0
LINE
  5
2D5
100
AcDbEntity
  8
0
  6
CONTINUOUS
 62
             2
100
AcDbLine
 10
362.4971133537565
 20
945.15539434816651
 11
362.4985000000006
 21
959.15550000000053
  0
LINE
  5
2D4
100
AcDbEntity
  8
0
  6
CONTINUOUS
 62
             2
100
AcDbLine
 10
384.4985000000006
 20
934.15549999999962
 11
373.4965836096676
 21
934.15611606755169
  0
LINE
  5
2D3
100
AcDbEntity
  8
0
  6
CONTINUOUS
 62
             2
100
AcDbLine
 10
384.4985000000006
 20
935.15549999999962
 11
384.4985000000006
 21
934.15549999999962
  0
LINE
  5
2D2
100
AcDbEntity
  8
0
  6
CONTINUOUS
 62
             2
100
AcDbLine
 10
387.95349999999962
 20
935.15549999999962
 11
384.4985000000006
 21
935.15549999999962
  0
LINE
  5
2D1
100
AcDbEntity
  8
0
  6
CONTINUOUS
 62
             2
100
AcDbLine
 10
387.95349999999962
 20
938.25549999999998
 11
387.95349999999962
 21
935.15549999999962
  0
LINE
  5
2D0
100
AcDbEntity
  8
0
  6
CONTINUOUS
 62
             2
100
AcDbLine
 10
384.4985000000006
 20
955.15450000000124
 11
387.95349999999962
 21
955.15450000000124
  0
LINE
  5
2CF
100
AcDbEntity
  8
0
  6
CONTINUOUS
 62
             2
100
AcDbLine
 10
384.4985000000006
 20
959.15550000000053
 11
384.4985000000006
 21
955.15450000000124
  0
LINE
  5
2CE
100
AcDbEntity
  8
0
  6
DOT_CENTER
 62
             1
100
AcDbLine
 10
373.4985000000006
 20
932.04200000000014
 11
373.4985000000006
 21
961.99599999999987
  0
LINE
  5
2CD
100
AcDbEntity
  8
0
  6
DOT_CENTER
 62
             1
100
AcDbLine
 10
395.74249999999938
 20
945.15500000000043
 11
360.03699999999981
 21
945.15500000000043
  0
LINE
  5
2CC
100
AcDbEntity
  8
0
  6
CONTINUOUS
 62
             2
100
AcDbLine
 10
387.95349999999962
 20
955.15450000000124
 11
387.95349999999962
 21
952.05550000000017
  0
LINE
  5
2CB
100
AcDbEntity
  8
0
  6
CONTINUOUS
 62
             2
100
AcDbLine
 10
387.95349999999962
 20
938.25549999999998
 11
393.50000000000051
 21
938.25549999999998
  0
LINE
  5
2CA
100
AcDbEntity
  8
0
  6
CONTINUOUS
 62
             2
100
AcDbLine
 10
387.95349999999962
 20
952.05550000000017
 11
387.95349999999962
 21
938.25549999999998
  0
LINE
  5
2C9
100
AcDbEntity
  8
0
  6
CONTINUOUS
 62
             2
100
AcDbLine
 10
547.5
 20
899.0
 11
530.00050000000056
 21
899.0
  0
LINE
  5
2C8
100
AcDbEntity
  8
0
  6
CONTINUOUS
 62
             2
100
AcDbLine
 10
503.50000000000051
 20
918.99943774238159
 11
496.99969364045683
 21
918.99943774238159
  0
LINE
  5
2C7
100
AcDbEntity
  8
0
  6
CONTINUOUS
 62
             2
100
AcDbLine
 10
547.5
 20
918.99943774238159
 11
503.50000000000051
 21
918.99943774238159
  0
LINE
  5
2C6
100
AcDbEntity
  8
0
  6
CONTINUOUS
 62
             2
100
AcDbLine
 10
560.5
 20
899.0
 11
547.5
 21
899.0
  0
LINE
  5
2C5
100
AcDbEntity
  8
0
  6
CONTINUOUS
 62
             2
100
AcDbLine
 10
560.5
 20
895.0
 11
560.5
 21
899.0
  0
LINE
  5
2C4
100
AcDbEntity
  8
1
  6
CONTINUOUS
 62
             2
100
AcDbLine
 10
547.5
 20
899.0
 11
547.5
 21
918.99943774238159
  0
LINE
  5
2C3
100
AcDbEntity
  8
1
  6
CONTINUOUS
 62
             2
100
AcDbLine
 10
503.50000000000051
 20
918.99943774238159
 11
503.50000000000051
 21
906.99949999999899
  0
LINE
  5
2C2
100
AcDbEntity
  8
0
  6
CONTINUOUS
 62
             2
100
AcDbLine
 10
553.99969364045683
 20
918.99943774238159
 11
547.5
 21
918.99943774238159
  0
LINE
  5
2C1
100
AcDbEntity
  8
0
  6
CONTINUOUS
 62
             2
100
AcDbLine
 10
496.99969364045683
 20
918.99943774238159
 11
496.99969364045683
 21
963.99943774238159
  0
LINE
  5
2C0
100
AcDbEntity
  8
0
  6
CONTINUOUS
 62
             2
100
AcDbLine
 10
553.99881615505819
 20
964.08237149753927
 11
553.99969364045683
 21
918.99943774238159
  0
LINE
  5
2BF
100
AcDbEntity
  8
1
  6
DOT_CENTER
 62
             1
100
AcDbLine
 10
525.50019364045647
 20
997.49893774238149
 11
525.50019364045647
 21
906.99949999999899
  0
LINE
  5
2BE
100
AcDbEntity
  8
1
  6
DOT_CENTER
 62
             1
100
AcDbLine
 10
558.99969364045683
 20
963.99843774238229
 11
491.99969364045683
 21
963.99843774238229
  0
LINE
  5
2BD
100
AcDbEntity
  8
1
  6
CONTINUOUS
 62
             2
100
AcDbLine
 10
1632.300502000001
 20
1309.726250180315
 11
1632.300502000001
 21
1305.1999960000001
  0
LINE
  5
2BC
100
AcDbEntity
  8
1
  6
CONTINUOUS
 62
             2
100
AcDbLine
 10
1787.7004960000011
 20
1305.1999960000001
 11
1787.7004960000011
 21
1309.7262552171801
  0
LINE
  5
2BB
100
AcDbEntity
  8
CSLAYER1
  6
DOT_CENTER
 62
             1
100
AcDbLine
 10
1595.520045999999
 20
1316.0
 11
1598.7510172317061
 21
1316.0
  0
LINE
  5
2BA
100
AcDbEntity
  8
CSLAYER1
  6
DOT_CENTER
 62
             1
100
AcDbLine
 10
1616.500500000001
 20
1291.0
 11
1616.500500000001
 21
1307.9965860464799
  0
LINE
  5
2B9
100
AcDbEntity
  8
CSLAYER1
  6
CONTINUOUS
 62
             2
100
AcDbLine
 10
1629.6290914552931
 20
1305.1999960000001
 11
1790.371908544708
 21
1305.1999960000001
  0
LINE
  5
2B8
100
AcDbEntity
  8
CSLAYER1
  6
CONTINUOUS
 62
             2
100
AcDbLine
 10
1603.500500000001
 20
1354.0
 11
1629.500500000001
 21
1354.0
  0
LINE
  5
2B7
100
AcDbEntity
  8
CSLAYER1
  6
CONTINUOUS
 62
             2
100
AcDbLine
 10
1622.2450626465379
 20
1300.0
 11
1797.755937353463
 21
1300.0
  0
LINE
  5
2B6
100
AcDbEntity
  8
CSLAYER1
  6
DOT_CENTER
 62
             1
100
AcDbLine
 10
1609.000500000001
 20
1344.0
 11
1624.000500000001
 21
1344.0
  0
LINE
  5
2B5
100
AcDbEntity
  8
CSLAYER1
  6
CONTINUOUS
 62
             2
100
AcDbLine
 10
1632.300502000001
 20
1322.273749819685
 11
1632.300502000001
 21
1351.0
  0
LINE
  5
2B4
100
AcDbEntity
  8
CSLAYER1
  6
CONTINUOUS
 62
             2
100
AcDbLine
 10
1630.900507999999
 20
1352.0
 11
1634.500500000001
 21
1352.0
  0
LINE
  5
2B3
100
AcDbEntity
  8
CSLAYER1
  6
CONTINUOUS
 62
             2
100
AcDbLine
 10
1632.300502000001
 20
1351.0
 11
1787.7004960000011
 21
1351.0
  0
LINE
  5
2B2
100
AcDbEntity
  8
CSLAYER1
  6
CONTINUOUS
 62
             2
100
AcDbLine
 10
1629.500500000001
 20
1332.0
 11
1629.500500000001
 21
1354.0
  0
LINE
  5
2B1
100
AcDbEntity
  8
CSLAYER1
  6
CONTINUOUS
 62
             2
100
AcDbLine
 10
1630.900507999999
 20
1332.0
 11
1630.900507999999
 21
1352.0
  0
LINE
  5
2B0
100
AcDbEntity
  8
CSLAYER1
  6
CONTINUOUS
 62
             2
100
AcDbLine
 10
1790.500500000001
 20
1354.0
 11
1790.7595536983511
 21
1354.0
  0
LINE
  5
2AF
100
AcDbEntity
  8
CSLAYER1
  6
CONTINUOUS
 62
             2
100
AcDbLine
 10
1816.500500000001
 20
1354.0
 11
1816.500500000001
 21
1326.9544511501031
  0
LINE
  5
2AE
100
AcDbEntity
  8
CSLAYER1
  6
CONTINUOUS
 62
             2
100
AcDbLine
 10
1787.7004960000011
 20
1351.0
 11
1787.7004960000011
 21
1322.273744782822
  0
LINE
  5
2AD
100
AcDbEntity
  8
CSLAYER1
  6
CONTINUOUS
 62
             2
100
AcDbLine
 10
1790.500500000001
 20
1354.0
 11
1790.500500000001
 21
1332.0
  0
LINE
  5
2AC
100
AcDbEntity
  8
CSLAYER1
  6
CONTINUOUS
 62
             2
100
AcDbLine
 10
1789.1004899999989
 20
1352.0
 11
1789.1004899999989
 21
1332.0
  0
LINE
  5
2AB
100
AcDbEntity
  8
CSLAYER1
  6
DOT_CENTER
 62
             1
100
AcDbLine
 10
1710.000500000001
 20
1295.1889040000001
 11
1710.000500000001
 21
1378.2794733727819
  0
LINE
  5
2AA
100
AcDbEntity
  8
CSLAYER1
  6
CONTINUOUS
 62
             2
100
AcDbLine
 10
1632.300502000001
 20
1332.0
 11
1630.900507999999
 21
1332.0
  0
LINE
  5
2A9
100
AcDbEntity
  8
CSLAYER1
  6
CONTINUOUS
 62
             2
100
AcDbLine
 10
1634.500500000001
 20
1390.0
 11
1645.4004999999991
 21
1390.0
  0
LINE
  5
2A8
100
AcDbEntity
  8
CSLAYER1
  6
CONTINUOUS
 62
             2
100
AcDbLine
 10
1785.500500000001
 20
1352.0
 11
1785.500500000001
 21
1390.0
  0
LINE
  5
2A7
100
AcDbEntity
  8
CSLAYER1
  6
CONTINUOUS
 62
             2
100
AcDbLine
 10
1634.500500000001
 20
1352.0
 11
1634.500500000001
 21
1390.0
  0
LINE
  5
2A6
100
AcDbEntity
  8
1
  6
CONTINUOUS
 62
             2
100
AcDbLine
 10
1645.4004999999991
 20
1390.0
 11
1645.4004999999991
 21
1395.0
  0
LINE
  5
2A5
100
AcDbEntity
  8
1
  6
CONTINUOUS
 62
             2
100
AcDbLine
 10
1645.4004999999991
 20
1395.0
 11
1669.0507954048151
 21
1395.0
  0
LINE
  5
2A4
100
AcDbEntity
  8
1
  6
CONTINUOUS
 62
             2
100
AcDbLine
 10
1774.6005000000009
 20
1395.0
 11
1774.6005000000009
 21
1390.0
  0
LINE
  5
2A3
100
AcDbEntity
  8
1
  6
CONTINUOUS
 62
             2
100
AcDbLine
 10
1711.9766159999999
 20
1362.000076
 11
1747.826596802046
 21
1362.000076
  0
LINE
  5
2A2
100
AcDbEntity
  8
1
  6
CONTINUOUS
 62
             2
100
AcDbLine
 10
1747.826596802046
 20
1362.000076
 11
1747.826596802046
 21
1375.4593028419799
  0
LINE
  5
2A1
100
AcDbEntity
  8
1
  6
CONTINUOUS
 62
             2
100
AcDbLine
 10
1739.5592324712591
 20
1362.000076
 11
1739.5592324712591
 21
1376.0756862181211
  0
LINE
  5
2A0
100
AcDbEntity
  8
1
  6
CONTINUOUS
 62
             2
100
AcDbLine
 10
1713.6230219182571
 20
1363.250076
 11
1688.991863602613
 21
1363.250076
  0
LINE
  5
29F
100
AcDbEntity
  8
1
  6
CONTINUOUS
 62
             2
100
AcDbLine
 10
1688.991863602613
 20
1363.250076
 11
1688.991863602613
 21
1370.000076
  0
LINE
  5
29E
100
AcDbEntity
  8
1
  6
CONTINUOUS
 62
             2
100
AcDbLine
 10
1688.991863602613
 20
1378.750076
 11
1703.6884488889079
 21
1378.750076
  0
LINE
  5
29D
100
AcDbEntity
  8
1
  6
CONTINUOUS
 62
             2
100
AcDbLine
 10
1711.9766159999999
 20
1363.250076
 11
1711.9766159999999
 21
1362.000076
  0
LINE
  5
29C
100
AcDbEntity
  8
1
  6
CONTINUOUS
 62
             2
100
AcDbLine
 10
1690.681912035504
 20
1363.250076
 11
1690.681912035504
 21
1378.750076
  0
LINE
  5
29B
100
AcDbEntity
  8
1
  6
CONTINUOUS
 62
             2
100
AcDbLine
 10
1669.6324020000011
 20
1372.000076
 11
1689.836887819057
 21
1372.000076
  0
LINE
  5
29A
100
AcDbEntity
  8
1
  6
CONTINUOUS
 62
             2
100
AcDbLine
 10
1689.836887819057
 20
1370.000076
 11
1669.6324020000011
 21
1370.000076
  0
LINE
  5
299
100
AcDbEntity
  8
1
  6
CONTINUOUS
 62
             2
100
AcDbLine
 10
1688.991863602613
 20
1372.000076
 11
1688.991863602613
 21
1378.750076
  0
LINE
  5
298
100
AcDbEntity
  8
CSLAYER1
  6
CONTINUOUS
 62
             2
100
AcDbLine
 10
1629.500500000001
 20
1332.0
 11
1622.2450626465379
 21
1332.0
  0
LINE
  5
297
100
AcDbEntity
  8
CSLAYER1
  6
CONTINUOUS
 62
             2
100
AcDbLine
 10
1630.900507999999
 20
1332.0
 11
1629.500500000001
 21
1332.0
  0
LINE
  5
296
100
AcDbEntity
  8
CSLAYER1
  6
CONTINUOUS
 62
             2
100
AcDbLine
 10
1634.500500000001
 20
1352.0
 11
1785.500500000001
 21
1352.0
  0
LINE
  5
295
100
AcDbEntity
  8
CSLAYER1
  6
CONTINUOUS
 62
             2
100
AcDbLine
 10
1645.4004999999991
 20
1390.0
 11
1669.214909190373
 21
1390.0
  0
LINE
  5
294
100
AcDbEntity
  8
CSLAYER1
  6
CONTINUOUS
 62
             2
100
AcDbLine
 10
1774.6005000000009
 20
1390.0
 11
1785.500500000001
 21
1390.0
  0
LINE
  5
293
100
AcDbEntity
  8
CSLAYER1
  6
CONTINUOUS
 62
             2
100
AcDbLine
 10
1785.500500000001
 20
1352.0
 11
1789.1004899999989
 21
1352.0
  0
LINE
  5
292
100
AcDbEntity
  8
CSLAYER1
  6
CONTINUOUS
 62
             2
100
AcDbLine
 10
1790.500500000001
 20
1332.0
 11
1789.1004899999989
 21
1332.0
  0
LINE
  5
291
100
AcDbEntity
  8
CSLAYER1
  6
CONTINUOUS
 62
             2
100
AcDbLine
 10
1789.1004899999989
 20
1332.0
 11
1787.7004960000011
 21
1332.0
  0
LINE
  5
290
100
AcDbEntity
  8
1
  6
DOT_CENTER
 62
             1
100
AcDbLine
 10
1705.5258853805201
 20
1344.0
 11
1714.602055451285
 21
1344.0
  0
LINE
  5
28F
100
AcDbEntity
  8
0
  6
CONTINUOUS
 62
             2
100
AcDbLine
 10
1241.4994999999999
 20
1328.0
 11
1258.5
 21
1328.0
  0
LINE
  5
28E
100
AcDbEntity
  8
0
  6
CONTINUOUS
 62
             2
100
AcDbLine
 10
1258.5
 20
1328.0
 11
1258.5
 21
1335.0
  0
LINE
  5
28D
100
AcDbEntity
  8
0
  6
CONTINUOUS
 62
             2
100
AcDbLine
 10
1258.5
 20
1335.0
 11
1260.0
 21
1335.0
  0
LINE
  5
28C
100
AcDbEntity
  8
0
  6
CONTINUOUS
 62
             2
100
AcDbLine
 10
1260.0
 20
1335.0
 11
1260.0
 21
1340.0
  0
LINE
  5
28B
100
AcDbEntity
  8
0
  6
CONTINUOUS
 62
             2
100
AcDbLine
 10
1240.0
 20
1335.0
 11
1241.4994999999999
 21
1335.0
  0
LINE
  5
28A
100
AcDbEntity
  8
0
  6
CONTINUOUS
 62
             2
100
AcDbLine
 10
1241.4994999999999
 20
1335.0
 11
1241.4994999999999
 21
1328.0
  0
LINE
  5
289
100
AcDbEntity
  8
0
  6
CONTINUOUS
 62
             2
100
AcDbLine
 10
1258.4994999999999
 20
1335.0
 11
1241.5
 21
1335.0
  0
LINE
  5
288
100
AcDbEntity
  8
0
  6
DOT_CENTER
 62
             1
100
AcDbLine
 10
1250.0
 20
1323.4829999999999
 11
1250.0
 21
1340.0
  0
LINE
  5
287
100
AcDbEntity
  8
0
  6
CONTINUOUS
 62
             2
100
AcDbLine
 10
718.2000000000005
 20
854.99999999999909
 11
718.2000000000005
 21
854.79999999999927
  0
LINE
  5
286
100
AcDbEntity
  8
0
  6
CONTINUOUS
 62
             2
100
AcDbLine
 10
703.2000000000005
 20
854.99999999999909
 11
718.2000000000005
 21
854.99999999999909
  0
LINE
  5
285
100
AcDbEntity
  8
0
  6
CONTINUOUS
 62
             2
100
AcDbLine
 10
703.2000000000005
 20
754.99999999999909
 11
703.2000000000005
 21
854.99999999999909
  0
LINE
  5
284
100
AcDbEntity
  8
0
  6
CONTINUOUS
 62
             2
100
AcDbLine
 10
718.2000000000005
 20
754.99999999999909
 11
703.2000000000005
 21
754.99999999999909
  0
LINE
  5
283
100
AcDbEntity
  8
0
  6
CONTINUOUS
 62
             2
100
AcDbLine
 10
718.2000000000005
 20
755.19999999999891
 11
718.2000000000005
 21
754.99999999999909
  0
LINE
  5
282
100
AcDbEntity
  8
0
  6
CONTINUOUS
 62
             2
100
AcDbLine
 10
725.2000000000005
 20
755.19999999999891
 11
718.2000000000005
 21
755.19999999999891
  0
LINE
  5
281
100
AcDbEntity
  8
0
  6
CONTINUOUS
 62
             2
100
AcDbLine
 10
725.2000000000005
 20
774.79999999999927
 11
725.2000000000005
 21
755.19999999999891
  0
LINE
  5
280
100
AcDbEntity
  8
0
  6
CONTINUOUS
 62
             2
100
AcDbLine
 10
718.2000000000005
 20
774.79999999999927
 11
725.2000000000005
 21
774.79999999999927
  0
LINE
  5
27F
100
AcDbEntity
  8
0
  6
CONTINUOUS
 62
             2
100
AcDbLine
 10
718.2000000000005
 20
835.19999999999891
 11
718.2000000000005
 21
774.79999999999927
  0
LINE
  5
27E
100
AcDbEntity
  8
0
  6
CONTINUOUS
 62
             2
100
AcDbLine
 10
725.2000000000005
 20
835.19999999999891
 11
718.2000000000005
 21
835.19999999999891
  0
LINE
  5
27D
100
AcDbEntity
  8
0
  6
CONTINUOUS
 62
             2
100
AcDbLine
 10
725.2000000000005
 20
854.79999999999927
 11
725.2000000000005
 21
835.19999999999891
  0
LINE
  5
27C
100
AcDbEntity
  8
0
  6
CONTINUOUS
 62
             2
100
AcDbLine
 10
718.2000000000005
 20
854.79999999999927
 11
725.2000000000005
 21
854.79999999999927
  0
LINE
  5
27B
100
AcDbEntity
  8
0
  6
CONTINUOUS
 62
             2
100
AcDbLine
 10
718.2000000000005
 20
835.19999999999891
 11
718.2000000000005
 21
854.79999999999927
  0
LINE
  5
27A
100
AcDbEntity
  8
0
  6
CONTINUOUS
 62
             2
100
AcDbLine
 10
718.2000000000005
 20
755.19999999999891
 11
718.2000000000005
 21
774.79999999999927
  0
LINE
  5
279
100
AcDbEntity
  8
0
  6
DOT_CENTER
 62
             1
100
AcDbLine
 10
696.10450000000014
 20
844.99999999999909
 11
731.13550000000055
 21
844.99999999999909
  0
LINE
  5
278
100
AcDbEntity
  8
0
  6
DOT_CENTER
 62
             1
100
AcDbLine
 10
730.56800000000044
 20
764.99999999999909
 11
695.82050000000049
 21
764.99999999999909
  0
LINE
  5
277
100
AcDbEntity
  8
1
  6
CONTINUOUS
 62
             2
100
AcDbLine
 10
1795.5
 20
741.19954200000188
 11
1811.5
 21
741.19954200000188
  0
LINE
  5
276
100
AcDbEntity
  8
0
  6
CONTINUOUS
 62
             2
100
AcDbLine
 10
1771.0005000000001
 20
952.99999999999977
 11
1783.5
 21
952.99999999999977
  0
LINE
  5
275
100
AcDbEntity
  8
0
  6
CONTINUOUS
 62
             2
100
AcDbLine
 10
1811.5
 20
924.99999999999977
 11
1811.5
 21
741.19954200000188
  0
LINE
  5
274
100
AcDbEntity
  8
0
  6
CONTINUOUS
 62
             2
100
AcDbLine
 10
1771.0005000000001
 20
936.99999999999977
 11
1783.5
 21
936.99999999999977
  0
LINE
  5
273
100
AcDbEntity
  8
0
  6
CONTINUOUS
 62
             2
100
AcDbLine
 10
1795.5
 20
924.99999999999977
 11
1795.5
 21
741.19954200000188
  0
LINE
  5
272
100
AcDbEntity
  8
0
  6
DOT_CENTER
 62
             1
100
AcDbLine
 10
1803.5
 20
924.99999999999977
 11
1803.5
 21
741.19954200000188
  0
LINE
  5
271
100
AcDbEntity
  8
0
  6
DOT_CENTER
 62
             1
100
AcDbLine
 10
1758.9005
 20
944.99999999999977
 11
1783.5
 21
944.99999999999977
  0
LINE
  5
270
100
AcDbEntity
  8
0
  6
CONTINUOUS
 62
             2
100
AcDbLine
 10
1811.5
 20
698.20004200000108
 11
1795.5005000000001
 21
698.20004200000108
  0
LINE
  5
26F
100
AcDbEntity
  8
0
  6
CONTINUOUS
 62
             2
100
AcDbLine
 10
1795.5005000000001
 20
698.20004200000108
 11
1795.0005000000001
 21
704.55004200000144
  0
LINE
  5
26E
100
AcDbEntity
  8
0
  6
CONTINUOUS
 62
             2
100
AcDbLine
 10
1795.0005000000001
 20
704.55004200000144
 11
1787.899999999999
 21
704.55004200000144
  0
LINE
  5
26D
100
AcDbEntity
  8
0
  6
CONTINUOUS
 62
             2
100
AcDbLine
 10
1787.899999999999
 20
704.55004200000144
 11
1787.899999999999
 21
714.54954200000134
  0
LINE
  5
26C
100
AcDbEntity
  8
0
  6
CONTINUOUS
 62
             2
100
AcDbLine
 10
1787.899999999999
 20
714.54954200000134
 11
1793.0
 21
714.54954200000134
  0
LINE
  5
26B
100
AcDbEntity
  8
0
  6
CONTINUOUS
 62
             2
100
AcDbLine
 10
1793.0
 20
714.54954200000134
 11
1793.0
 21
723.20004200000108
  0
LINE
  5
26A
100
AcDbEntity
  8
0
  6
CONTINUOUS
 62
             2
100
AcDbLine
 10
1793.0
 20
723.20004200000108
 11
1786.1999999999989
 21
723.20004200000108
  0
LINE
  5
269
100
AcDbEntity
  8
0
  6
CONTINUOUS
 62
             2
100
AcDbLine
 10
1786.1999999999989
 20
723.20004200000108
 11
1786.1999999999989
 21
741.19954200000188
  0
LINE
  5
268
100
AcDbEntity
  8
0
  6
CONTINUOUS
 62
             2
100
AcDbLine
 10
1786.1999999999989
 20
741.19954200000188
 11
1820.8
 21
741.19954200000188
  0
LINE
  5
267
100
AcDbEntity
  8
0
  6
CONTINUOUS
 62
             2
100
AcDbLine
 10
1820.8
 20
741.19954200000188
 11
1820.8
 21
723.20004200000108
  0
LINE
  5
266
100
AcDbEntity
  8
0
  6
CONTINUOUS
 62
             2
100
AcDbLine
 10
1820.8
 20
723.20004200000108
 11
1814.0
 21
723.20004200000108
  0
LINE
  5
265
100
AcDbEntity
  8
0
  6
CONTINUOUS
 62
             2
100
AcDbLine
 10
1814.0
 20
723.20004200000108
 11
1814.0
 21
714.54954200000134
  0
LINE
  5
264
100
AcDbEntity
  8
0
  6
CONTINUOUS
 62
             2
100
AcDbLine
 10
1814.0
 20
714.54954200000134
 11
1819.0999999999999
 21
714.54954200000134
  0
LINE
  5
263
100
AcDbEntity
  8
0
  6
CONTINUOUS
 62
             2
100
AcDbLine
 10
1819.0999999999999
 20
714.54954200000134
 11
1819.0999999999999
 21
704.55004200000144
  0
LINE
  5
262
100
AcDbEntity
  8
0
  6
CONTINUOUS
 62
             2
100
AcDbLine
 10
1819.0999999999999
 20
704.55004200000144
 11
1812.0
 21
704.55004200000144
  0
LINE
  5
261
100
AcDbEntity
  8
0
  6
CONTINUOUS
 62
             2
100
AcDbLine
 10
1812.0
 20
704.55004200000144
 11
1811.5
 21
698.20004200000108
  0
LINE
  5
260
100
AcDbEntity
  8
0
  6
CONTINUOUS
 62
             2
100
AcDbLine
 10
1795.0005000000001
 20
704.54954200000134
 11
1812.0
 21
704.54954200000134
  0
LINE
  5
25F
100
AcDbEntity
  8
0
  6
CONTINUOUS
 62
             2
100
AcDbLine
 10
1814.0
 20
714.54954200000134
 11
1793.0
 21
714.54954200000134
  0
LINE
  5
25E
100
AcDbEntity
  8
0
  6
CONTINUOUS
 62
             2
100
AcDbLine
 10
1793.0
 20
723.20004200000108
 11
1814.0
 21
723.20004200000108
  0
LINE
  5
25D
100
AcDbEntity
  8
0
  6
DOT_CENTER
 62
             1
100
AcDbLine
 10
1803.5
 20
741.19954200000188
 11
1803.5
 21
698.20004200000108
  0
LINE
  5
25C
100
AcDbEntity
  8
0
  6
CONTINUOUS
 62
             2
100
AcDbLine
 10
1260.0
 20
755.0
 11
1260.0
 21
855.0
  0
LINE
  5
25B
100
AcDbEntity
  8
0
  6
CONTINUOUS
 62
             2
100
AcDbLine
 10
1240.0
 20
755.0
 11
1260.0
 21
755.0
  0
LINE
  5
25A
100
AcDbEntity
  8
0
  6
CONTINUOUS
 62
             2
100
AcDbLine
 10
1240.0
 20
855.0
 11
1240.0
 21
755.0
  0
LINE
  5
259
100
AcDbEntity
  8
0
  6
CONTINUOUS
 62
             2
100
AcDbLine
 10
1260.0
 20
855.0
 11
1240.0
 21
855.0
  0
LINE
  5
258
100
AcDbEntity
  8
0
  6
DOT_CENTER
 62
             1
100
AcDbLine
 10
1250.0
 20
859.51850000000013
 11
1250.0
 21
831.24150000000009
  0
LINE
  5
257
100
AcDbEntity
  8
0
  6
DOT_CENTER
 62
             1
100
AcDbLine
 10
1250.0
 20
778.58500000000004
 11
1250.0
 21
751.18350000000009
  0
LINE
  5
256
100
AcDbEntity
  8
0
  6
DOT_CENTER
 62
             1
100
AcDbLine
 10
1236.596
 20
765.0
 11
1263.2764999999999
 21
765.0
  0
LINE
  5
255
100
AcDbEntity
  8
0
  6
DOT_CENTER
 62
             1
100
AcDbLine
 10
1236.6904999999999
 20
845.0
 11
1263.2529999999999
 21
845.0
  0
LINE
  5
254
100
AcDbEntity
  8
1
  6
CONTINUOUS
 62
             2
100
AcDbLine
 10
1245.0
 20
775.0
 11
1245.0
 21
835.0
  0
LINE
  5
253
100
AcDbEntity
  8
1
  6
CONTINUOUS
 62
             2
100
AcDbLine
 10
1255.0
 20
835.0
 11
1255.0
 21
775.0
  0
LINE
  5
252
100
AcDbEntity
  8
1
  6
CONTINUOUS
 62
             2
100
AcDbLine
 10
1255.0
 20
780.0
 11
1245.0
 21
780.0
  0
LINE
  5
251
100
AcDbEntity
  8
1
  6
CONTINUOUS
 62
             2
100
AcDbLine
 10
1245.0
 20
830.0
 11
1255.0
 21
830.0
  0
LINE
  5
250
100
AcDbEntity
  8
1
  6
CONTINUOUS
 62
             2
100
AcDbLine
 10
379.49850000000077
 20
969.65550000000053
 11
393.29850000000079
 21
969.65550000000053
  0
LINE
  5
24F
100
AcDbEntity
  8
1
  6
CONTINUOUS
 62
             2
100
AcDbLine
 10
367.49850000000077
 20
969.65550000000053
 11
379.49850000000077
 21
969.65550000000053
  0
LINE
  5
24E
100
AcDbEntity
  8
1
  6
CONTINUOUS
 62
             2
100
AcDbLine
 10
367.49850000000077
 20
959.15550000000053
 11
367.49850000000077
 21
969.65550000000053
  0
LINE
  5
24D
100
AcDbEntity
  8
1
  6
CONTINUOUS
 62
             2
100
AcDbLine
 10
379.49850000000077
 20
959.15550000000053
 11
367.49850000000077
 21
959.15550000000053
  0
LINE
  5
24C
100
AcDbEntity
  8
1
  6
CONTINUOUS
 62
             2
100
AcDbLine
 10
379.49850000000077
 20
969.65550000000053
 11
379.49850000000077
 21
959.15550000000053
  0
LINE
  5
24B
100
AcDbEntity
  8
1
  6
CONTINUOUS
 62
             2
100
AcDbLine
 10
393.29850000000079
 20
997.65550000000053
 11
353.6985000000011
 21
997.65550000000053
  0
LINE
  5
24A
100
AcDbEntity
  8
1
  6
CONTINUOUS
 62
             2
100
AcDbLine
 10
393.29850000000079
 20
969.65550000000053
 11
393.29850000000079
 21
997.65550000000053
  0
LINE
  5
249
100
AcDbEntity
  8
1
  6
CONTINUOUS
 62
             2
100
AcDbLine
 10
353.6985000000011
 20
969.65550000000053
 11
367.49850000000077
 21
969.65550000000053
  0
LINE
  5
248
100
AcDbEntity
  8
1
  6
CONTINUOUS
 62
             2
100
AcDbLine
 10
353.6985000000011
 20
997.65550000000053
 11
353.6985000000011
 21
969.65550000000053
  0
LINE
  5
247
100
AcDbEntity
  8
1
  6
DOT_CENTER
 62
             1
100
AcDbLine
 10
373.49850000000077
 20
1001.619036289547
 11
373.49850000000077
 21
959.15550000000053
  0
LINE
  5
246
100
AcDbEntity
  8
1
  6
DOT_CENTER
 62
             1
100
AcDbLine
 10
1710.0
 20
1646.527449173564
 11
1710.0
 21
1648.2004999999999
  0
LINE
  5
245
100
AcDbEntity
  8
1
  6
CONTINUOUS
 62
             2
100
AcDbLine
 10
1704.0
 20
1647.9990000000021
 11
1716.0
 21
1647.9990000000021
  0
LINE
  5
244
100
AcDbEntity
  8
1
  6
CONTINUOUS
 62
             2
100
AcDbLine
 10
1716.0
 20
1647.9990000000021
 11
1716.0
 21
1649.131477767781
  0
LINE
  5
243
100
AcDbEntity
  8
1
  6
CONTINUOUS
 62
             2
100
AcDbLine
 10
1702.928932188134
 20
1660.929432188135
 11
1717.0710678118651
 21
1675.071567811867
  0
LINE
  5
242
100
AcDbEntity
  8
1
  6
CONTINUOUS
 62
             2
100
AcDbLine
 10
1714.4828773608399
 20
1670.588690451026
 11
1717.0710678118651
 21
1675.071567811867
  0
LINE
  5
241
100
AcDbEntity
  8
1
  6
CONTINUOUS
 62
             2
100
AcDbLine
 10
1712.588190451024
 20
1672.4833773608409
 11
1717.0710678118651
 21
1675.071567811867
  0
LINE
  5
240
100
AcDbEntity
  8
1
  6
DOT_CENTER
 62
             1
100
AcDbLine
 10
1709.9999999999991
 20
1691.746945848239
 11
1709.9999999999991
 21
1643.4712042886349
  0
LINE
  5
23F
100
AcDbEntity
  8
1
  6
DOT_CENTER
 62
             1
100
AcDbLine
 10
1686.2535541517609
 20
1668.0005000000001
 11
1734.5292957113641
 21
1668.0005000000001
  0
LINE
  5
23E
100
AcDbEntity
  8
0
  6
DOT_CENTER
 62
             1
100
AcDbLine
 10
1891.3009999999999
 20
1326.996188793071
 11
1848.7004999999999
 21
1326.996188793071
  0
LINE
  5
23D
100
AcDbEntity
  8
0
  6
DOT_CENTER
 62
             1
100
AcDbLine
 10
1870.0
 20
1313.996188793071
 11
1870.0
 21
1339.996188793071
  0
LINE
  5
23C
100
AcDbEntity
  8
1
  6
CONTINUOUS
 62
             2
100
AcDbLine
 10
1883.1500000000001
 20
1323.8461887930721
 11
1877.3537405447851
 21
1323.8461887930721
  0
LINE
  5
23B
100
AcDbEntity
  8
1
  6
CONTINUOUS
 62
             2
100
AcDbLine
 10
1883.1500000000001
 20
1330.1461887930709
 11
1877.3537405447839
 21
1330.1461887930709
  0
LINE
  5
23A
100
AcDbEntity
  8
1
  6
CONTINUOUS
 62
             2
100
AcDbLine
 10
1862.6462594552161
 20
1330.1461887930709
 11
1856.849999999999
 21
1330.1461887930709
  0
LINE
  5
239
100
AcDbEntity
  8
1
  6
CONTINUOUS
 62
             2
100
AcDbLine
 10
1862.6462594552149
 20
1323.8461887930721
 11
1856.849999999999
 21
1323.8461887930721
  0
LINE
  5
238
100
AcDbEntity
  8
1
  6
CONTINUOUS
 62
             2
100
AcDbLine
 10
1877.3537405447851
 20
1323.8461887930721
 11
1862.6462594552149
 21
1323.8461887930721
  0
LINE
  5
237
100
AcDbEntity
  8
1
  6
CONTINUOUS
 62
             2
100
AcDbLine
 10
1877.3537405447839
 20
1330.1461887930709
 11
1862.6462594552161
 21
1330.1461887930709
  0
LINE
  5
236
100
AcDbEntity
  8
1
  6
DOT_CENTER
 62
             1
100
AcDbLine
 10
722.98203268984764
 20
541.29999999999927
 11
696.00000000000045
 21
541.29999999999927
  0
LINE
  5
235
100
AcDbEntity
  8
1
  6
CONTINUOUS
 62
             2
100
AcDbLine
 10
720.00000000000045
 20
556.30099999999948
 11
700.00000000000045
 21
556.30099999999948
  0
LINE
  5
234
100
AcDbEntity
  8
1
  6
CONTINUOUS
 62
             2
100
AcDbLine
 10
720.00000000000045
 20
526.30099999999948
 11
720.00000000000045
 21
556.30099999999948
  0
LINE
  5
233
100
AcDbEntity
  8
1
  6
CONTINUOUS
 62
             2
100
AcDbLine
 10
700.00000000000045
 20
526.30099999999948
 11
720.00000000000045
 21
526.30099999999948
  0
LINE
  5
232
100
AcDbEntity
  8
1
  6
CONTINUOUS
 62
             2
100
AcDbLine
 10
700.00000000000045
 20
556.30099999999948
 11
700.00000000000045
 21
526.30099999999948
  0
LINE
  5
231
100
AcDbEntity
  8
CSLAYER1
  6
CONTINUOUS
 62
             2
100
AcDbLine
 10
1724.7701627916549
 20
673.20004200000108
 11
1747.1254212478559
 21
673.20004200000108
  0
LINE
  5
230
100
AcDbEntity
  8
CSLAYER1
  6
CONTINUOUS
 62
             2
100
AcDbLine
 10
1747.1254212478559
 20
673.20004200000108
 11
1786.1796879999999
 21
673.20004200000108
  0
LINE
  5
22F
100
AcDbEntity
  8
CSLAYER1
  6
CONTINUOUS
 62
             2
100
AcDbLine
 10
1790.5
 20
522.60000599999967
 11
1816.5
 21
522.60000599999967
  0
LINE
  5
22E
100
AcDbEntity
  8
CSLAYER1
  6
CONTINUOUS
 62
             2
100
AcDbLine
 10
1629.5
 20
522.60000599999967
 11
1790.5
 21
522.60000599999967
  0
LINE
  5
22D
100
AcDbEntity
  8
CSLAYER19
  6
CONTINUOUS
 62
             2
100
AcDbLine
 10
1724.7701627916549
 20
673.20004200000108
 11
1726.316114210972
 21
681.20277309211156
  0
LINE
  5
22C
100
AcDbEntity
  8
CSLAYER19
  6
CONTINUOUS
 62
             2
100
AcDbLine
 10
1747.1254212478559
 20
673.20004200000108
 11
1747.826096802045
 21
677.04753392426187
  0
LINE
  5
22B
100
AcDbEntity
  8
CSLAYER195
  6
CONTINUOUS
 62
             2
100
AcDbLine
 10
1689.140682014852
 20
689.66107073888975
 11
1689.620437375404
 21
692.1704581194133
  0
LINE
  5
22A
100
AcDbEntity
  8
CSLAYER195
  6
CONTINUOUS
 62
             2
100
AcDbLine
 10
1690.052338624597
 20
694.42954188058593
 11
1683.4646899999991
 21
695.6889979999994
  0
LINE
  5
229
100
AcDbEntity
  8
CSLAYER1
  6
CONTINUOUS
 62
             2
100
AcDbLine
 10
1689.620437375404
 20
692.1704581194133
 11
1683.0216579999981
 21
693.43204200000105
  0
LINE
  5
228
100
AcDbEntity
  8
CSLAYER1
  6
DOT_CENTER
 62
             1
100
AcDbLine
 10
1710.0
 20
684.509491999999
 11
1710.0
 21
514.99999999999977
  0
LINE
  5
227
100
AcDbEntity
  8
CSLAYER1
  6
DOT_CENTER
 62
             1
100
AcDbLine
 10
1803.5
 20
698.20004200000108
 11
1803.5
 21
659.20633213422548
  0
LINE
  5
226
100
AcDbEntity
  8
CSLAYER1
  6
CONTINUOUS
 62
             2
100
AcDbLine
 10
1599.1796859999979
 20
673.20004200000108
 11
1599.500007757599
 21
673.20004200000108
  0
LINE
  5
225
100
AcDbEntity
  8
CSLAYER1
  6
CONTINUOUS
 62
             2
100
AcDbLine
 10
1599.499277576039
 20
522.60000599999967
 11
1603.5
 21
522.60000599999967
  0
LINE
  5
224
100
AcDbEntity
  8
CSLAYER1
  6
DOT_CENTER
 62
             1
100
AcDbLine
 10
1616.5
 20
698.20004200000108
 11
1616.5
 21
659.90554257366398
  0
LINE
  5
223
100
AcDbEntity
  8
CSLAYER1
  6
CONTINUOUS
 62
             2
100
AcDbLine
 10
1629.5
 20
517.99999999999977
 11
1603.5
 21
517.99999999999977
  0
LINE
  5
222
100
AcDbEntity
  8
CSLAYER1
  6
CONTINUOUS
 62
             2
100
AcDbLine
 10
1629.5
 20
522.60000599999967
 11
1629.5
 21
517.99999999999977
  0
LINE
  5
221
100
AcDbEntity
  8
CSLAYER1
  6
CONTINUOUS
 62
             2
100
AcDbLine
 10
1603.5
 20
522.60000599999967
 11
1603.5
 21
517.99999999999977
  0
LINE
  5
220
100
AcDbEntity
  8
CSLAYER1
  6
CONTINUOUS
 62
             2
100
AcDbLine
 10
1816.5
 20
522.60000599999967
 11
1816.5
 21
517.99999999999977
  0
LINE
  5
21F
100
AcDbEntity
  8
CSLAYER1
  6
CONTINUOUS
 62
             2
100
AcDbLine
 10
1790.5
 20
522.60000599999967
 11
1790.5
 21
517.99999999999977
  0
LINE
  5
21E
100
AcDbEntity
  8
CSLAYER1
  6
CONTINUOUS
 62
             2
100
AcDbLine
 10
1816.5
 20
517.99999999999977
 11
1790.5
 21
517.99999999999977
  0
LINE
  5
21D
100
AcDbEntity
  8
CSLAYER1
  6
CONTINUOUS
 62
             2
100
AcDbLine
 10
1633.8203119999989
 20
698.20004200000108
 11
1633.8203119999989
 21
673.20004200000108
  0
LINE
  5
21C
100
AcDbEntity
  8
CSLAYER1
  6
CONTINUOUS
 62
             2
100
AcDbLine
 10
1599.1796859999979
 20
698.20004200000108
 11
1599.1796859999979
 21
673.20004200000108
  0
LINE
  5
21B
100
AcDbEntity
  8
CSLAYER1
  6
CONTINUOUS
 62
             2
100
AcDbLine
 10
1599.1796859999979
 20
698.20004200000108
 11
1633.8203119999989
 21
698.20004200000108
  0
LINE
  5
21A
100
AcDbEntity
  8
CSLAYER1
  6
CONTINUOUS
 62
             2
100
AcDbLine
 10
1786.1796879999999
 20
698.20004200000108
 11
1786.1796879999999
 21
673.20004200000108
  0
LINE
  5
219
100
AcDbEntity
  8
CSLAYER1
  6
CONTINUOUS
 62
             2
100
AcDbLine
 10
1820.820313999998
 20
698.20004200000108
 11
1820.820313999998
 21
673.20004200000108
  0
LINE
  5
218
100
AcDbEntity
  8
CSLAYER1
  6
CONTINUOUS
 62
             2
100
AcDbLine
 10
1820.820313999998
 20
698.20004200000108
 11
1786.1796879999999
 21
698.20004200000108
  0
LINE
  5
217
100
AcDbEntity
  8
1
  6
CONTINUOUS
 62
             2
100
AcDbLine
 10
1820.4999932121
 20
673.20004200000108
 11
1820.500632120958
 21
522.60000599999967
  0
LINE
  5
216
100
AcDbEntity
  8
1
  6
CONTINUOUS
 62
             2
100
AcDbLine
 10
1599.499277576039
 20
522.60000599999967
 11
1599.500007757599
 21
673.20004200000108
  0
LINE
  5
215
100
AcDbEntity
  8
CSLAYER19
  6
CONTINUOUS
 62
             2
100
AcDbLine
 10
1747.826096802045
 20
677.04753392426187
 11
1745.527616026274
 21
677.49154810724008
  0
LINE
  5
214
100
AcDbEntity
  8
CSLAYER19
  6
CONTINUOUS
 62
             2
100
AcDbLine
 10
1713.9139459999981
 20
694.094687999999
 11
1713.6225219182561
 21
692.57038017625541
  0
LINE
  5
213
100
AcDbEntity
  8
CSLAYER1
  6
CONTINUOUS
 62
             2
100
AcDbLine
 10
1603.5
 20
522.60000599999967
 11
1629.5
 21
522.60000599999967
  0
LINE
  5
212
100
AcDbEntity
  8
CSLAYER1
  6
CONTINUOUS
 62
             2
100
AcDbLine
 10
1816.5
 20
522.60000599999967
 11
1820.500632120958
 21
522.60000599999967
  0
LINE
  5
211
100
AcDbEntity
  8
CSLAYER1
  6
CONTINUOUS
 62
             2
100
AcDbLine
 10
1820.4999932121
 20
673.20004200000108
 11
1820.820313999998
 21
673.20004200000108
  0
LINE
  5
210
100
AcDbEntity
  8
CSLAYER1
  6
CONTINUOUS
 62
             2
100
AcDbLine
 10
1599.500007757599
 20
673.20004200000108
 11
1633.8203119999989
 21
673.20004200000108
  0
LINE
  5
20F
100
AcDbEntity
  8
CSLAYER1
  6
DOT_CENTER
 62
             1
100
AcDbLine
 10
1803.5
 20
529.1531903987177
 11
1803.5
 21
514.99999999999989
  0
LINE
  5
20E
100
AcDbEntity
  8
CSLAYER1
  6
DOT_CENTER
 62
             1
100
AcDbLine
 10
1616.5
 20
528.45397995927738
 11
1616.5
 21
514.99999999999966
  0
LINE
  5
20D
100
AcDbEntity
  8
1
  6
CONTINUOUS
 62
             7
100
AcDbLine
 10
1706.7226315013661
 20
517.99999999999977
 11
1713.456684143463
 21
517.99999999999977
  0
LINE
  5
20C
100
AcDbEntity
  8
1
  6
DOT_CENTER
 62
             1
100
AcDbLine
 10
1593.4110752366271
 20
597.1000219999994
 11
1826.1260952252051
 21
597.1000219999994
  0
LINE
  5
20B
100
AcDbEntity
  8
1
  6
CONTINUOUS
 62
             2
100
AcDbLine
 10
1690.5490557625189
 20
697.02764879106849
 11
1713.6225219182561
 21
692.57038017625541
  0
LINE
  5
20A
100
AcDbEntity
  8
1
  6
CONTINUOUS
 62
             2
100
AcDbLine
 10
1689.140682014852
 20
689.66107073888975
 11
1712.2141461953149
 21
685.20380250565609
  0
LINE
  5
209
100
AcDbEntity
  8
CSLAYER19
  6
CONTINUOUS
 62
             2
100
AcDbLine
 10
1712.2141461953149
 20
685.20380250565609
 11
1711.9787268313989
 21
683.97243008053533
  0
LINE
  5
208
100
AcDbEntity
  8
CSLAYER19
  6
CONTINUOUS
 62
             2
100
AcDbLine
 10
1713.6225219182561
 20
692.57038017625541
 11
1712.2141461953149
 21
685.20380250565609
  0
LINE
  5
207
100
AcDbEntity
  8
CSLAYER19
  6
CONTINUOUS
 62
             2
100
AcDbLine
 10
1726.316114210972
 20
681.20277309211156
 11
1711.9787268313989
 21
683.97243008053533
  0
LINE
  5
206
100
AcDbEntity
  8
1
  6
CONTINUOUS
 62
             2
100
AcDbLine
 10
1713.9139459999981
 20
694.094687999999
 11
1747.3741244083151
 21
687.63094293201698
  0
LINE
  5
205
100
AcDbEntity
  8
1
  6
CONTINUOUS
 62
             2
100
AcDbLine
 10
1747.3741244083151
 20
687.63094293201698
 11
1745.527616026274
 21
677.49154810724008
  0
LINE
  5
204
100
AcDbEntity
  8
CSLAYER19
  6
CONTINUOUS
 62
             2
100
AcDbLine
 10
1745.527616026274
 20
677.49154810724008
 11
1726.316114210972
 21
681.20277309211156
  0
LINE
  5
203
100
AcDbEntity
  8
CSLAYER1
  6
CONTINUOUS
 62
             2
100
AcDbLine
 10
1786.1796879999999
 20
673.20004200000108
 11
1820.4999932121
 21
673.20004200000108
  0
LINE
  5
202
100
AcDbEntity
  8
CSLAYER1
  6
CONTINUOUS
 62
             2
100
AcDbLine
 10
1633.8203119999989
 20
673.20004200000108
 11
1724.7701627916549
 21
673.20004200000108
  0
LINE
  5
201
100
AcDbEntity
  8
CSLAYER195
  6
CONTINUOUS
 62
             2
100
AcDbLine
 10
1690.052338624597
 20
694.42954188058593
 11
1690.5490557625189
 21
697.02764879106849
  0
LINE
  5
200
100
AcDbEntity
  8
CSLAYER195
  6
CONTINUOUS
 62
             2
100
AcDbLine
 10
1689.620437375404
 20
692.1704581194133
 11
1690.052338624597
 21
694.42954188058593
  0
LINE
  5
1FF
100
AcDbEntity
  8
0
  6
CONTINUOUS
 62
             2
100
AcDbLine
 10
1422.870405810974
 20
803.57601287121634
 11
1502.870405810974
 21
803.57601287121634
  0
LINE
  5
1FE
100
AcDbEntity
  8
0
  6
CONTINUOUS
 62
             2
100
AcDbLine
 10
1502.870405810974
 20
803.57601287121634
 11
1502.870405810974
 21
853.57601287121634
  0
LINE
  5
1FD
100
AcDbEntity
  8
0
  6
CONTINUOUS
 62
             2
100
AcDbLine
 10
1502.870405810974
 20
853.57601287121634
 11
1422.870405810974
 21
853.57601287121634
  0
LINE
  5
1FC
100
AcDbEntity
  8
0
  6
CONTINUOUS
 62
             2
100
AcDbLine
 10
1422.870405810974
 20
853.57601287121634
 11
1422.870405810974
 21
803.57601287121634
  0
LINE
  5
1FB
100
AcDbEntity
  8
1
  6
CONTINUOUS
 62
             2
100
AcDbLine
 10
740.50000000000045
 20
671.60003599999982
 11
740.50000000000045
 21
522.60000599999967
  0
LINE
  5
1FA
100
AcDbEntity
  8
1
  6
CONTINUOUS
 62
             2
100
AcDbLine
 10
706.50000000000045
 20
522.60000599999967
 11
706.50000000000045
 21
526.30099999999948
  0
LINE
  5
1F9
100
AcDbEntity
  8
CSLAYER1
  6
CONTINUOUS
 62
             2
100
AcDbLine
 10
739.50000000000045
 20
522.60000599999967
 11
706.50000000000045
 21
522.60000599999967
  0
LINE
  5
1F8
100
AcDbEntity
  8
CSLAYER1
  6
CONTINUOUS
 62
             2
100
AcDbLine
 10
739.50000000000045
 20
520.99999999999977
 11
703.2000000000005
 21
520.99999999999977
  0
LINE
  5
1F7
100
AcDbEntity
  8
CSLAYER1
  6
CONTINUOUS
 62
             2
100
AcDbLine
 10
738.50000000000045
 20
671.60003599999982
 11
740.50000000000045
 21
671.60003599999982
  0
LINE
  5
1F6
100
AcDbEntity
  8
CSLAYER1
  6
DOT_CENTER
 62
             1
100
AcDbLine
 10
723.50000000000045
 20
519.33316161507764
 11
723.50000000000045
 21
698.20002799999997
  0
LINE
  5
1F5
100
AcDbEntity
  8
CSLAYER1
  6
CONTINUOUS
 62
             2
100
AcDbLine
 10
739.50000000000045
 20
517.99999999999977
 11
739.50000000000045
 21
522.60000599999967
  0
LINE
  5
1F4
100
AcDbEntity
  8
CSLAYER1
  6
CONTINUOUS
 62
             2
100
AcDbLine
 10
739.50000000000045
 20
517.99999999999977
 11
703.2000000000005
 21
517.99999999999966
  0
LINE
  5
1F3
100
AcDbEntity
  8
CSLAYER1
  6
CONTINUOUS
 62
             2
100
AcDbLine
 10
707.50000000000045
 20
671.60003599999982
 11
707.50000000000045
 21
673.20004199999971
  0
LINE
  5
1F2
100
AcDbEntity
  8
CSLAYER1
  6
CONTINUOUS
 62
             2
100
AcDbLine
 10
707.50000000000045
 20
520.99999999999977
 11
707.50000000000045
 21
522.60000599999967
  0
LINE
  5
1F1
100
AcDbEntity
  8
CSLAYER1
  6
DOT_CENTER
 62
             1
100
AcDbLine
 10
750.43970400000035
 20
597.10002199999985
 11
703.2000000000005
 21
597.10002199999985
  0
LINE
  5
1F0
100
AcDbEntity
  8
CSLAYER1
  6
CONTINUOUS
 62
             2
100
AcDbLine
 10
708.50000000000045
 20
674.80004800000006
 11
708.50000000000045
 21
698.20002799999997
  0
LINE
  5
1EF
100
AcDbEntity
  8
CSLAYER1
  6
CONTINUOUS
 62
             2
100
AcDbLine
 10
738.50000000000045
 20
671.60003599999982
 11
738.50000000000045
 21
698.20002799999997
  0
LINE
  5
1EE
100
AcDbEntity
  8
CSLAYER1
  6
CONTINUOUS
 62
             2
100
AcDbLine
 10
708.50000000000045
 20
698.20002799999997
 11
738.50000000000045
 21
698.20002799999997
  0
LINE
  5
1ED
100
AcDbEntity
  8
CSLAYER1
  6
CONTINUOUS
 62
             2
100
AcDbLine
 10
740.50000000000045
 20
522.60000599999967
 11
739.50000000000045
 21
522.60000599999967
  0
LINE
  5
1EC
100
AcDbEntity
  8
CSLAYER1
  6
CONTINUOUS
 62
             2
100
AcDbLine
 10
706.50000000000045
 20
671.60003599999982
 11
738.50000000000045
 21
671.60003599999982
  0
LINE
  5
1EB
100
AcDbEntity
  8
CSLAYER1
  6
CONTINUOUS
 62
             2
100
AcDbLine
 10
708.50000000000045
 20
673.20002799999997
 11
708.50000000000045
 21
674.80004800000006
  0
LINE
  5
1EA
100
AcDbEntity
  8
CSLAYER1
  6
CONTINUOUS
 62
             2
100
AcDbLine
 10
738.50000000000045
 20
673.20002799999997
 11
703.2000000000005
 21
673.20002799999997
  0
LINE
  5
1E9
100
AcDbEntity
  8
1
  6
CONTINUOUS
 62
             2
100
AcDbLine
 10
740.50000000000045
 20
540.2250097499998
 11
720.00000000000045
 21
540.2250097499998
  0
LINE
  5
1E8
100
AcDbEntity
  8
1
  6
CONTINUOUS
 62
             2
100
AcDbLine
 10
706.50000000000045
 20
560.85001349999993
 11
740.50000000000045
 21
560.85001349999993
  0
LINE
  5
1E7
100
AcDbEntity
  8
1
  6
CONTINUOUS
 62
             2
100
AcDbLine
 10
740.50000000000045
 20
558.85001349999993
 11
706.50000000000045
 21
558.85001349999993
  0
LINE
  5
1E6
100
AcDbEntity
  8
1
  6
CONTINUOUS
 62
             2
100
AcDbLine
 10
706.50000000000045
 20
579.47501724999984
 11
740.50000000000045
 21
579.47501724999984
  0
LINE
  5
1E5
100
AcDbEntity
  8
1
  6
CONTINUOUS
 62
             2
100
AcDbLine
 10
740.50000000000045
 20
577.47501724999984
 11
706.50000000000045
 21
577.47501724999984
  0
LINE
  5
1E4
100
AcDbEntity
  8
1
  6
CONTINUOUS
 62
             2
100
AcDbLine
 10
706.50000000000045
 20
598.10002099999974
 11
740.50000000000045
 21
598.10002099999974
  0
LINE
  5
1E3
100
AcDbEntity
  8
1
  6
CONTINUOUS
 62
             2
100
AcDbLine
 10
740.50000000000045
 20
596.10002099999974
 11
706.50000000000045
 21
596.10002099999974
  0
LINE
  5
1E2
100
AcDbEntity
  8
1
  6
CONTINUOUS
 62
             2
100
AcDbLine
 10
706.50000000000045
 20
616.72502474999965
 11
740.50000000000045
 21
616.72502474999965
  0
LINE
  5
1E1
100
AcDbEntity
  8
1
  6
CONTINUOUS
 62
             2
100
AcDbLine
 10
740.50000000000045
 20
614.72502474999965
 11
706.50000000000045
 21
614.72502474999965
  0
LINE
  5
1E0
100
AcDbEntity
  8
1
  6
CONTINUOUS
 62
             2
100
AcDbLine
 10
706.50000000000045
 20
635.35002849999978
 11
740.50000000000045
 21
635.35002849999978
  0
LINE
  5
1DF
100
AcDbEntity
  8
1
  6
CONTINUOUS
 62
             2
100
AcDbLine
 10
740.50000000000045
 20
633.35002849999955
 11
706.50000000000045
 21
633.35002849999955
  0
LINE
  5
1DE
100
AcDbEntity
  8
1
  6
CONTINUOUS
 62
             2
100
AcDbLine
 10
706.50000000000045
 20
653.97503224999969
 11
740.50000000000045
 21
653.97503224999969
  0
LINE
  5
1DD
100
AcDbEntity
  8
1
  6
CONTINUOUS
 62
             2
100
AcDbLine
 10
740.50000000000045
 20
651.97503224999969
 11
706.50000000000045
 21
651.97503224999969
  0
LINE
  5
1DC
100
AcDbEntity
  8
0
  6
CONTINUOUS
 62
             2
100
AcDbLine
 10
2791.118462291096
 20
1714.9951000000001
 11
2791.118462291096
 21
1729.5911000000001
  0
LINE
  5
1DB
100
AcDbEntity
  8
0
  6
CONTINUOUS
 62
             2
100
AcDbLine
 10
2751.118462291096
 20
1714.9951000000001
 11
2751.118462291096
 21
1890.3841153846161
  0
LINE
  5
1DA
100
AcDbEntity
  8
1
  6
DOTTED
 62
             3
100
AcDbLine
 10
2546.2522943112222
 20
1449.8769080077641
 11
2546.2522943112222
 21
1383.7319
  0
LINE
  5
1D9
100
AcDbEntity
  8
1
  6
DOTTED
 62
             3
100
AcDbLine
 10
2546.2522943112222
 20
1556.2390999999991
 11
2546.2522943112222
 21
1529.877308007764
  0
LINE
  5
1D8
100
AcDbEntity
  8
0
  6
CONTINUOUS
 62
             2
100
AcDbLine
 10
2517.9682943112211
 20
1489.8781080077631
 11
2529.968694311222
 21
1492.878108007764
  0
LINE
  5
1D7
100
AcDbEntity
  8
0
  6
CONTINUOUS
 62
             2
100
AcDbLine
 10
2529.968694311222
 20
1486.878108007764
 11
2517.9682943112211
 21
1489.8781080077631
  0
LINE
  5
1D6
100
AcDbEntity
  8
2
  6
DOT_CENTER
 62
             7
100
AcDbLine
 10
2504.5358943112219
 20
1529.877308007764
 11
2648.5358943112219
 21
1529.877308007764
  0
LINE
  5
1D5
100
AcDbEntity
  8
2
  6
DOT_CENTER
 62
             7
100
AcDbLine
 10
2504.5358943112219
 20
1449.8769080077641
 11
2504.5358943112219
 21
1529.877308007764
  0
LINE
  5
1D4
100
AcDbEntity
  8
2
  6
DOT_CENTER
 62
             7
100
AcDbLine
 10
2648.5358943112219
 20
1449.8769080077641
 11
2504.5358943112219
 21
1449.8769080077641
  0
LINE
  5
1D3
100
AcDbEntity
  8
2
  6
DOT_CENTER
 62
             7
100
AcDbLine
 10
2648.5358943112219
 20
1529.877308007764
 11
2648.5358943112219
 21
1449.8769080077641
  0
LINE
  5
1D2
100
AcDbEntity
  8
0
  6
CONTINUOUS
 62
             2
100
AcDbLine
 10
2626.5358943112219
 20
1499.877308007764
 11
2626.5358943112219
 21
1479.877308007764
  0
LINE
  5
1D1
100
AcDbEntity
  8
0
  6
CONTINUOUS
 62
             2
100
AcDbLine
 10
2616.5358943112219
 20
1489.8777080077641
 11
2626.5358943112219
 21
1499.877308007764
  0
LINE
  5
1D0
100
AcDbEntity
  8
0
  6
CONTINUOUS
 62
             2
100
AcDbLine
 10
2606.5358943112219
 20
1499.877308007764
 11
2616.5358943112219
 21
1489.8777080077641
  0
LINE
  5
1CF
100
AcDbEntity
  8
0
  6
CONTINUOUS
 62
             2
100
AcDbLine
 10
2606.5358943112219
 20
1479.877308007764
 11
2606.5358943112219
 21
1499.877308007764
  0
LINE
  5
1CE
100
AcDbEntity
  8
0
  6
CONTINUOUS
 62
             2
100
AcDbLine
 10
2586.868694311222
 20
1489.877308007764
 11
2596.5358943112219
 21
1489.877308007764
  0
LINE
  5
1CD
100
AcDbEntity
  8
0
  6
CONTINUOUS
 62
             2
100
AcDbLine
 10
2586.868694311222
 20
1484.1041080077639
 11
2576.8690943112219
 21
1489.8781080077631
  0
LINE
  5
1CC
100
AcDbEntity
  8
0
  6
CONTINUOUS
 62
             2
100
AcDbLine
 10
2586.868694311222
 20
1495.6513080077641
 11
2586.868694311222
 21
1484.1041080077639
  0
LINE
  5
1CB
100
AcDbEntity
  8
0
  6
CONTINUOUS
 62
             2
100
AcDbLine
 10
2576.8690943112219
 20
1489.8781080077631
 11
2586.868694311222
 21
1495.6513080077641
  0
LINE
  5
1CA
100
AcDbEntity
  8
0
  6
CONTINUOUS
 62
             2
100
AcDbLine
 10
2546.2522943112222
 20
1537.877308007764
 11
2546.2522943112222
 21
1441.8777080077641
  0
LINE
  5
1C9
100
AcDbEntity
  8
0
  6
CONTINUOUS
 62
             2
100
AcDbLine
 10
2546.2522943112222
 20
1461.5941080077639
 11
2574.5366943112222
 21
1489.8785080077639
  0
LINE
  5
1C8
100
AcDbEntity
  8
0
  6
CONTINUOUS
 62
             2
100
AcDbLine
 10
2517.9682943112211
 20
1489.8785080077639
 11
2546.2522943112222
 21
1461.5941080077639
  0
LINE
  5
1C7
100
AcDbEntity
  8
0
  6
CONTINUOUS
 62
             2
100
AcDbLine
 10
2546.2522943112222
 20
1518.1629080077639
 11
2517.9682943112211
 21
1489.8785080077639
  0
LINE
  5
1C6
100
AcDbEntity
  8
0
  6
CONTINUOUS
 62
             2
100
AcDbLine
 10
2574.5366943112222
 20
1489.8785080077639
 11
2546.2522943112222
 21
1518.1629080077639
  0
LINE
  5
1C5
100
AcDbEntity
  8
0
  6
CONTINUOUS
 62
             2
100
AcDbLine
 10
2574.5366943112222
 20
1489.8785080077639
 11
2562.5358943112219
 21
1486.8785080077639
  0
LINE
  5
1C4
100
AcDbEntity
  8
0
  6
CONTINUOUS
 62
             2
100
AcDbLine
 10
2562.5358943112219
 20
1492.8785080077639
 11
2574.5366943112222
 21
1489.8785080077639
  0
LINE
  5
1C3
100
AcDbEntity
  8
0
  6
CONTINUOUS
 62
             2
100
AcDbLine
 10
2517.9682943112211
 20
1489.8781080077631
 11
2574.5366943112222
 21
1489.8781080077631
  0
LINE
  5
1C2
100
AcDbEntity
  8
0
  6
CONTINUOUS
 62
             2
100
AcDbLine
 10
2262.426822151534
 20
1778.9390999999989
 11
2270.1544221515328
 21
1776.868300000001
  0
LINE
  5
1C1
100
AcDbEntity
  8
0
  6
CONTINUOUS
 62
             2
100
AcDbLine
 10
2268.0840221515341
 20
1773.2819
 11
2262.426822151534
 21
1778.9390999999989
  0
LINE
  5
1C0
100
AcDbEntity
  8
0
  6
CONTINUOUS
 62
             2
100
AcDbLine
 10
2283.2120221515338
 20
1766.9387000000011
 11
2262.426822151534
 21
1778.9390999999989
  0
LINE
  5
1BF
100
AcDbEntity
  8
0
  6
CONTINUOUS
 62
             2
100
AcDbLine
 10
2819.9979913828311
 20
1429.7327
 11
2755.7295913828302
 21
1429.7327
  0
LINE
  5
1BE
100
AcDbEntity
  8
0
  6
CONTINUOUS
 62
             2
100
AcDbLine
 10
2819.9979913828311
 20
1383.7319
 11
2819.9979913828311
 21
1429.7327
  0
LINE
  5
1BD
100
AcDbEntity
  8
0
  6
CONTINUOUS
 62
             2
100
AcDbLine
 10
2242.2208221515339
 20
1383.7319
 11
2819.9979913828311
 21
1383.7319
  0
LINE
  5
1BC
100
AcDbEntity
  8
0
  6
CONTINUOUS
 62
             2
100
AcDbLine
 10
2242.2208221515339
 20
1436.4422999999999
 11
2242.2208221515339
 21
1383.7319
  0
LINE
  5
1BB
100
AcDbEntity
  8
0
  6
CONTINUOUS
 62
             2
100
AcDbLine
 10
2396.7380221515341
 20
1603.449900000001
 11
2396.7380221515341
 21
1455.4755
  0
LINE
  5
1BA
100
AcDbEntity
  8
0
  6
CONTINUOUS
 62
             2
100
AcDbLine
 10
2396.7340221515351
 20
1772.9386999999999
 11
2288.8192221465351
 21
1772.9386999999999
  0
LINE
  5
1B9
100
AcDbEntity
  8
0
  6
CONTINUOUS
 62
             2
100
AcDbLine
 10
2396.7340221515351
 20
1723.449900000001
 11
2396.7328221515349
 21
1890.3841153846181
  0
LINE
  5
1B8
100
AcDbEntity
  8
2
  6
DOT_CENTER
 62
             7
100
AcDbLine
 10
2202.2208221515339
 20
1343.4666999999999
 11
2859.9981000000021
 21
1343.4666999999999
  0
LINE
  5
1B7
100
AcDbEntity
  8
2
  6
DOT_CENTER
 62
             7
100
AcDbLine
 10
2202.2208221515339
 20
1874.9994999999999
 11
2202.2208221515339
 21
1343.4666999999999
  0
LINE
  5
1B6
100
AcDbEntity
  8
2
  6
DOT_CENTER
 62
             7
100
AcDbLine
 10
2859.9965000000002
 20
1874.9994999999999
 11
2202.2208221515339
 21
1874.9994999999999
  0
LINE
  5
1B5
100
AcDbEntity
  8
2
  6
DOT_CENTER
 62
             7
100
AcDbLine
 10
2859.9981000000021
 20
1343.4666999999999
 11
2859.9965000000002
 21
1874.9994999999999
  0
LINE
  5
1B4
100
AcDbEntity
  8
0
  6
CONTINUOUS
 62
             2
100
AcDbLine
 10
2609.5006067669192
 20
1714.9951000000001
 11
2791.118462291096
 21
1714.9951000000001
  0
LINE
  5
1B3
100
AcDbEntity
  8
0
  6
CONTINUOUS
 62
             2
100
AcDbLine
 10
2609.5006067669192
 20
1729.5911000000001
 11
2609.5006067669192
 21
1714.9951000000001
  0
LINE
  5
1B2
100
AcDbEntity
  8
0
  6
CONTINUOUS
 62
             2
100
AcDbLine
 10
2254.5108221515352
 20
1412.7075
 11
2284.2432221515351
 21
1412.7075
  0
LINE
  5
1B1
100
AcDbEntity
  8
0
  6
CONTINUOUS
 62
             2
100
AcDbLine
 10
2284.2432221515351
 20
1416.7075
 11
2254.5108221515352
 21
1416.7075
  0
LINE
  5
1B0
100
AcDbEntity
  8
0
  6
CONTINUOUS
 62
             2
100
AcDbLine
 10
2368.4536221515341
 20
1427.190700000001
 11
2396.7380221515341
 21
1455.4755
  0
LINE
  5
1AF
100
AcDbEntity
  8
0
  6
CONTINUOUS
 62
             2
100
AcDbLine
 10
2396.7380221515341
 20
1398.9067000000009
 11
2368.4536221515341
 21
1427.190700000001
  0
LINE
  5
1AE
100
AcDbEntity
  8
0
  6
CONTINUOUS
 62
             2
100
AcDbLine
 10
2425.0220221515351
 20
1427.190700000001
 11
2396.7380221515341
 21
1398.9067000000009
  0
LINE
  5
1AD
100
AcDbEntity
  8
0
  6
CONTINUOUS
 62
             2
100
AcDbLine
 10
2396.7380221515341
 20
1455.4755
 11
2425.0220221515351
 21
1427.190700000001
  0
LINE
  5
1AC
100
AcDbEntity
  8
0
  6
CONTINUOUS
 62
             2
100
AcDbLine
 10
2396.7380221515341
 20
1455.4755
 11
2396.7380221515341
 21
1463.4755
  0
LINE
  5
1AB
100
AcDbEntity
  8
0
  6
CONTINUOUS
 62
             2
100
AcDbLine
 10
2396.7380221515341
 20
1398.9067000000009
 11
2396.7380221515341
 21
1383.7319
  0
LINE
  5
1AA
100
AcDbEntity
  8
0
  6
CONTINUOUS
 62
             2
100
AcDbLine
 10
2416.4528221515352
 20
1427.190700000001
 11
2425.0220221515351
 21
1427.190700000001
  0
LINE
  5
1A9
100
AcDbEntity
  8
0
  6
CONTINUOUS
 62
             2
100
AcDbLine
 10
2400.4528221515352
 20
1427.190700000001
 11
2408.4528221515361
 21
1427.190700000001
  0
LINE
  5
1A8
100
AcDbEntity
  8
0
  6
CONTINUOUS
 62
             2
100
AcDbLine
 10
2384.4528221515338
 20
1427.190700000001
 11
2392.4528221515352
 21
1427.190700000001
  0
LINE
  5
1A7
100
AcDbEntity
  8
0
  6
CONTINUOUS
 62
             2
100
AcDbLine
 10
2368.4536221515341
 20
1427.190700000001
 11
2376.4528221515352
 21
1427.190700000001
  0
LINE
  5
1A6
100
AcDbEntity
  8
0
  6
CONTINUOUS
 62
             2
100
AcDbLine
 10
2755.7295913828302
 20
1482.0174999999999
 11
2784.0147913828309
 21
1510.3015
  0
LINE
  5
1A5
100
AcDbEntity
  8
0
  6
CONTINUOUS
 62
             2
100
AcDbLine
 10
2784.0147913828309
 20
1453.7327000000009
 11
2755.7295913828302
 21
1482.0174999999999
  0
LINE
  5
1A4
100
AcDbEntity
  8
0
  6
CONTINUOUS
 62
             2
100
AcDbLine
 10
2812.298791382832
 20
1482.0174999999999
 11
2784.0147913828309
 21
1453.7327000000009
  0
LINE
  5
1A3
100
AcDbEntity
  8
0
  6
CONTINUOUS
 62
             2
100
AcDbLine
 10
2784.0147913828309
 20
1510.3015
 11
2812.298791382832
 21
1482.0174999999999
  0
LINE
  5
1A2
100
AcDbEntity
  8
0
  6
CONTINUOUS
 62
             2
100
AcDbLine
 10
2784.0147913828309
 20
1453.7327000000009
 11
2784.0147913828309
 21
1441.7327000000009
  0
LINE
  5
1A1
100
AcDbEntity
  8
0
  6
CONTINUOUS
 62
             2
100
AcDbLine
 10
2790.94239138283
 20
1522.3015000000009
 11
2784.0147913828309
 21
1534.3015000000009
  0
LINE
  5
1A0
100
AcDbEntity
  8
0
  6
CONTINUOUS
 62
             2
100
AcDbLine
 10
2777.0859913828308
 20
1522.3015000000009
 11
2790.94239138283
 21
1522.3015000000009
  0
LINE
  5
19F
100
AcDbEntity
  8
0
  6
CONTINUOUS
 62
             2
100
AcDbLine
 10
2784.0147913828309
 20
1534.3015000000009
 11
2777.0859913828308
 21
1522.3015000000009
  0
LINE
  5
19E
100
AcDbEntity
  8
0
  6
CONTINUOUS
 62
             2
100
AcDbLine
 10
2784.0147913828309
 20
1510.3015
 11
2784.0147913828309
 21
1522.3015000000009
  0
LINE
  5
19D
100
AcDbEntity
  8
0
  6
CONTINUOUS
 62
             2
100
AcDbLine
 10
2803.7295913828302
 20
1482.0174999999999
 11
2812.298791382832
 21
1482.0174999999999
  0
LINE
  5
19C
100
AcDbEntity
  8
0
  6
CONTINUOUS
 62
             2
100
AcDbLine
 10
2787.7295913828302
 20
1482.0174999999999
 11
2795.7295913828302
 21
1482.0174999999999
  0
LINE
  5
19B
100
AcDbEntity
  8
0
  6
CONTINUOUS
 62
             2
100
AcDbLine
 10
2771.7295913828302
 20
1482.0174999999999
 11
2779.7295913828302
 21
1482.0174999999999
  0
LINE
  5
19A
100
AcDbEntity
  8
0
  6
CONTINUOUS
 62
             2
100
AcDbLine
 10
2755.7295913828302
 20
1482.0174999999999
 11
2763.7295913828302
 21
1482.0174999999999
  0
LINE
  5
199
100
AcDbEntity
  8
0
  6
CONTINUOUS
 62
             2
100
AcDbLine
 10
2777.499991382831
 20
1441.0166999999999
 11
2790.5283913828312
 21
1441.0166999999999
  0
LINE
  5
198
100
AcDbEntity
  8
0
  6
CONTINUOUS
 62
             2
100
AcDbLine
 10
2790.0663913828289
 20
1440.2163
 11
2777.961991382831
 21
1440.2163
  0
LINE
  5
197
100
AcDbEntity
  8
0
  6
CONTINUOUS
 62
             2
100
AcDbLine
 10
2778.423991382831
 20
1439.416300000001
 11
2789.6043913828312
 21
1439.416300000001
  0
LINE
  5
196
100
AcDbEntity
  8
0
  6
CONTINUOUS
 62
             2
100
AcDbLine
 10
2789.1427913828288
 20
1438.616300000001
 11
2778.8855913828302
 21
1438.616300000001
  0
LINE
  5
195
100
AcDbEntity
  8
0
  6
CONTINUOUS
 62
             2
100
AcDbLine
 10
2779.3475913828302
 20
1437.8163
 11
2788.6807913828311
 21
1437.8163
  0
LINE
  5
194
100
AcDbEntity
  8
0
  6
CONTINUOUS
 62
             2
100
AcDbLine
 10
2788.2187913828302
 20
1437.0159000000001
 11
2779.809591382832
 21
1437.0159000000001
  0
LINE
  5
193
100
AcDbEntity
  8
0
  6
CONTINUOUS
 62
             2
100
AcDbLine
 10
2780.2715913828301
 20
1436.2163
 11
2787.7567913828302
 21
1436.2163
  0
LINE
  5
192
100
AcDbEntity
  8
0
  6
CONTINUOUS
 62
             2
100
AcDbLine
 10
2787.2947913828302
 20
1435.4159
 11
2780.73239138283
 21
1435.4159
  0
LINE
  5
191
100
AcDbEntity
  8
0
  6
CONTINUOUS
 62
             2
100
AcDbLine
 10
2781.19439138283
 20
1434.6162999999999
 11
2786.8331913828301
 21
1434.6162999999999
  0
LINE
  5
190
100
AcDbEntity
  8
0
  6
CONTINUOUS
 62
             2
100
AcDbLine
 10
2786.3711913828301
 20
1433.8159000000001
 11
2781.65639138283
 21
1433.8159000000001
  0
LINE
  5
18F
100
AcDbEntity
  8
0
  6
CONTINUOUS
 62
             2
100
AcDbLine
 10
2782.1183913828309
 20
1433.015900000001
 11
2785.9091913828302
 21
1433.015900000001
  0
LINE
  5
18E
100
AcDbEntity
  8
0
  6
CONTINUOUS
 62
             2
100
AcDbLine
 10
2785.4471913828302
 20
1432.2159000000011
 11
2782.57999138283
 21
1432.2159000000011
  0
LINE
  5
18D
100
AcDbEntity
  8
0
  6
CONTINUOUS
 62
             2
100
AcDbLine
 10
2783.0419913828309
 20
1431.4159
 11
2784.985591382831
 21
1431.4159
  0
LINE
  5
18C
100
AcDbEntity
  8
0
  6
CONTINUOUS
 62
             2
100
AcDbLine
 10
2784.523591382831
 20
1430.6155000000001
 11
2783.50399138283
 21
1430.6155000000001
  0
LINE
  5
18B
100
AcDbEntity
  8
0
  6
CONTINUOUS
 62
             2
100
AcDbLine
 10
2783.9647913828298
 20
1429.815900000001
 11
2784.061591382831
 21
1429.815900000001
  0
LINE
  5
18A
100
AcDbEntity
  8
0
  6
CONTINUOUS
 62
             2
100
AcDbLine
 10
2790.94239138283
 20
1441.7327000000009
 11
2784.0135913828299
 21
1429.7327
  0
LINE
  5
189
100
AcDbEntity
  8
0
  6
CONTINUOUS
 62
             2
100
AcDbLine
 10
2777.0867913828311
 20
1441.7327000000009
 11
2790.94239138283
 21
1441.7327000000009
  0
LINE
  5
188
100
AcDbEntity
  8
0
  6
CONTINUOUS
 62
             2
100
AcDbLine
 10
2784.0135913828299
 20
1429.7327
 11
2777.0867913828311
 21
1441.7327000000009
  0
LINE
  5
187
100
AcDbEntity
  8
0
  6
CONTINUOUS
 62
             2
100
AcDbLine
 10
2366.7660221515339
 20
1684.0455000000011
 11
2346.8080221515352
 21
1684.0455000000011
  0
LINE
  5
186
100
AcDbEntity
  8
0
  6
CONTINUOUS
 62
             2
100
AcDbLine
 10
2347.2748221515349
 20
1683.245899999999
 11
2366.3044221515338
 21
1683.245899999999
  0
LINE
  5
185
100
AcDbEntity
  8
0
  6
CONTINUOUS
 62
             2
100
AcDbLine
 10
2365.8424221515338
 20
1682.4454999999989
 11
2347.7416221515341
 21
1682.4454999999989
  0
LINE
  5
184
100
AcDbEntity
  8
0
  6
CONTINUOUS
 62
             2
100
AcDbLine
 10
2348.2084221515338
 20
1681.6459
 11
2365.3804221515338
 21
1681.6459
  0
LINE
  5
183
100
AcDbEntity
  8
0
  6
CONTINUOUS
 62
             2
100
AcDbLine
 10
2364.9184221515338
 20
1680.845499999999
 11
2348.6752221515349
 21
1680.845499999999
  0
LINE
  5
182
100
AcDbEntity
  8
0
  6
CONTINUOUS
 62
             2
100
AcDbLine
 10
2349.1420221515341
 20
1680.0455000000011
 11
2364.4564221515338
 21
1680.0455000000011
  0
LINE
  5
181
100
AcDbEntity
  8
0
  6
CONTINUOUS
 62
             2
100
AcDbLine
 10
2363.9948221515351
 20
1679.2455
 11
2349.6088221515352
 21
1679.2455
  0
LINE
  5
180
100
AcDbEntity
  8
0
  6
CONTINUOUS
 62
             2
100
AcDbLine
 10
2350.0756221515348
 20
1678.4455000000009
 11
2363.5328221515351
 21
1678.4455000000009
  0
LINE
  5
17F
100
AcDbEntity
  8
0
  6
CONTINUOUS
 62
             2
100
AcDbLine
 10
2363.0708221515351
 20
1677.6451
 11
2350.5424221515341
 21
1677.6451
  0
LINE
  5
17E
100
AcDbEntity
  8
0
  6
CONTINUOUS
 62
             2
100
AcDbLine
 10
2351.0092221515338
 20
1676.8454999999999
 11
2362.6088221515352
 21
1676.8454999999999
  0
LINE
  5
17D
100
AcDbEntity
  8
0
  6
CONTINUOUS
 62
             2
100
AcDbLine
 10
2362.1468221515352
 20
1676.0451
 11
2351.4760221515348
 21
1676.0451
  0
LINE
  5
17C
100
AcDbEntity
  8
0
  6
CONTINUOUS
 62
             2
100
AcDbLine
 10
2351.9428221515341
 20
1675.2455
 11
2361.6852221515351
 21
1675.2455
  0
LINE
  5
17B
100
AcDbEntity
  8
0
  6
CONTINUOUS
 62
             2
100
AcDbLine
 10
2361.2232221515351
 20
1674.4450999999999
 11
2352.4096221515351
 21
1674.4450999999999
  0
LINE
  5
17A
100
AcDbEntity
  8
0
  6
CONTINUOUS
 62
             2
100
AcDbLine
 10
2352.8764221515348
 20
1673.6451000000011
 11
2360.7612221515351
 21
1673.6451000000011
  0
LINE
  5
179
100
AcDbEntity
  8
0
  6
CONTINUOUS
 62
             2
100
AcDbLine
 10
2360.2992221515351
 20
1672.8451
 11
2353.3424221515338
 21
1672.8451
  0
LINE
  5
178
100
AcDbEntity
  8
0
  6
CONTINUOUS
 62
             2
100
AcDbLine
 10
2353.809222151534
 20
1672.0451
 11
2359.837622151535
 21
1672.0451
  0
LINE
  5
177
100
AcDbEntity
  8
0
  6
CONTINUOUS
 62
             2
100
AcDbLine
 10
2359.375622151535
 20
1671.2447
 11
2354.2760221515341
 21
1671.2447
  0
LINE
  5
176
100
AcDbEntity
  8
0
  6
CONTINUOUS
 62
             2
100
AcDbLine
 10
2354.7428221515338
 20
1670.4450999999999
 11
2358.9136221515341
 21
1670.4450999999999
  0
LINE
  5
175
100
AcDbEntity
  8
0
  6
CONTINUOUS
 62
             2
100
AcDbLine
 10
2358.4516221515341
 20
1669.6446999999989
 11
2355.2096221515349
 21
1669.6446999999989
  0
LINE
  5
174
100
AcDbEntity
  8
0
  6
CONTINUOUS
 62
             2
100
AcDbLine
 10
2355.676422151535
 20
1668.8451
 11
2357.989622151536
 21
1668.8451
  0
LINE
  5
173
100
AcDbEntity
  8
0
  6
CONTINUOUS
 62
             2
100
AcDbLine
 10
2357.528022151535
 20
1668.0446999999999
 11
2356.1432221515338
 21
1668.0446999999999
  0
LINE
  5
172
100
AcDbEntity
  8
0
  6
CONTINUOUS
 62
             2
100
AcDbLine
 10
2356.6100221515348
 20
1667.2447000000011
 11
2357.066022151535
 21
1667.2447000000011
  0
LINE
  5
171
100
AcDbEntity
  8
0
  6
CONTINUOUS
 62
             2
100
AcDbLine
 10
2356.8392221515351
 20
1666.851900000001
 11
2366.8392221515351
 21
1684.1723
  0
LINE
  5
170
100
AcDbEntity
  8
0
  6
CONTINUOUS
 62
             2
100
AcDbLine
 10
2346.7328221515349
 20
1684.1731
 11
2356.8392221515351
 21
1666.851900000001
  0
LINE
  5
16F
100
AcDbEntity
  8
1
  6
DOTTED
 62
             3
100
AcDbLine
 10
2424.214422151535
 20
1641.4403
 11
2424.214422151535
 21
1604.5651
  0
LINE
  5
16E
100
AcDbEntity
  8
1
  6
DOTTED
 62
             3
100
AcDbLine
 10
2410.8756221515359
 20
1654.7786999999989
 11
2424.214422151535
 21
1641.4403
  0
LINE
  5
16D
100
AcDbEntity
  8
1
  6
DOTTED
 62
             3
100
AcDbLine
 10
2376.7328221515349
 20
1708.9203
 11
2396.7340221515351
 21
1688.9206999999999
  0
LINE
  5
16C
100
AcDbEntity
  8
1
  6
DOTTED
 62
             3
100
AcDbLine
 10
2356.7328221515349
 20
1708.9203
 11
2376.7328221515349
 21
1708.9203
  0
LINE
  5
16B
100
AcDbEntity
  8
1
  6
DOTTED
 62
             3
100
AcDbLine
 10
2356.7328221515349
 20
1684.1723
 11
2356.7328221515349
 21
1708.9203
  0
LINE
  5
16A
100
AcDbEntity
  8
0
  6
CONTINUOUS
 62
             2
100
AcDbLine
 10
2366.7340221515351
 20
1626.1727000000001
 11
2346.7340221515351
 21
1620.1727000000001
  0
LINE
  5
169
100
AcDbEntity
  8
0
  6
CONTINUOUS
 62
             2
100
AcDbLine
 10
2346.7340221515351
 20
1632.1727000000001
 11
2366.7340221515351
 21
1626.1727000000001
  0
LINE
  5
168
100
AcDbEntity
  8
0
  6
CONTINUOUS
 62
             2
100
AcDbLine
 10
2366.7340221515351
 20
1638.1731
 11
2346.7340221515351
 21
1632.1727000000001
  0
LINE
  5
167
100
AcDbEntity
  8
0
  6
CONTINUOUS
 62
             2
100
AcDbLine
 10
2346.7340221515351
 20
1644.1727000000001
 11
2366.7340221515351
 21
1638.1731
  0
LINE
  5
166
100
AcDbEntity
  8
0
  6
CONTINUOUS
 62
             2
100
AcDbLine
 10
2366.8392221515351
 20
1684.1723
 11
2366.8392221515351
 21
1644.1727000000001
  0
LINE
  5
165
100
AcDbEntity
  8
0
  6
CONTINUOUS
 62
             2
100
AcDbLine
 10
2346.7328221515349
 20
1684.1723
 11
2366.8392221515351
 21
1684.1723
  0
LINE
  5
164
100
AcDbEntity
  8
0
  6
CONTINUOUS
 62
             2
100
AcDbLine
 10
2346.7328221515349
 20
1644.1727000000001
 11
2346.7328221515349
 21
1684.1723
  0
LINE
  5
163
100
AcDbEntity
  8
0
  6
CONTINUOUS
 62
             2
100
AcDbLine
 10
2452.840852920765
 20
1690.1939
 11
2445.3000529207652
 21
1681.2683
  0
LINE
  5
162
100
AcDbEntity
  8
0
  6
CONTINUOUS
 62
             2
100
AcDbLine
 10
2450.5296529207671
 20
1678.728700000001
 11
2452.840852920765
 21
1690.1939
  0
LINE
  5
161
100
AcDbEntity
  8
0
  6
CONTINUOUS
 62
             2
100
AcDbLine
 10
2497.502052920765
 20
1678.9206999999999
 11
2497.502052920765
 21
1658.9206999999999
  0
LINE
  5
160
100
AcDbEntity
  8
0
  6
CONTINUOUS
 62
             2
100
AcDbLine
 10
2487.502052920765
 20
1668.9206999999999
 11
2497.502052920765
 21
1678.9206999999999
  0
LINE
  5
15F
100
AcDbEntity
  8
0
  6
CONTINUOUS
 62
             2
100
AcDbLine
 10
2477.502052920765
 20
1678.9206999999999
 11
2487.502052920765
 21
1668.9206999999999
  0
LINE
  5
15E
100
AcDbEntity
  8
0
  6
CONTINUOUS
 62
             2
100
AcDbLine
 10
2477.502052920765
 20
1658.9206999999999
 11
2477.502052920765
 21
1678.9206999999999
  0
LINE
  5
15D
100
AcDbEntity
  8
0
  6
CONTINUOUS
 62
             2
100
AcDbLine
 10
2467.9064529207658
 20
1672.920699999999
 11
2416.3296221515338
 21
1672.920699999999
  0
LINE
  5
15C
100
AcDbEntity
  8
0
  6
CONTINUOUS
 62
             2
100
AcDbLine
 10
2416.3296221515338
 20
1664.9206999999999
 11
2467.9064529207658
 21
1664.9206999999999
  0
LINE
  5
15B
100
AcDbEntity
  8
0
  6
CONTINUOUS
 62
             2
100
AcDbLine
 10
2396.7340221515351
 20
1648.9211
 11
2396.7340221515351
 21
1592.5651000000009
  0
LINE
  5
15A
100
AcDbEntity
  8
0
  6
CONTINUOUS
 62
             2
100
AcDbLine
 10
2396.7340221515351
 20
1688.9206999999999
 11
2396.7340221515351
 21
1735.449900000001
  0
LINE
  5
159
100
AcDbEntity
  8
0
  6
CONTINUOUS
 62
             2
100
AcDbLine
 10
2396.7768221515339
 20
1688.8454999999999
 11
2396.6900221515339
 21
1688.8454999999999
  0
LINE
  5
158
100
AcDbEntity
  8
0
  6
CONTINUOUS
 62
             2
100
AcDbLine
 10
2396.228022151533
 20
1688.0451
 11
2397.2388221515348
 21
1688.0451
  0
LINE
  5
157
100
AcDbEntity
  8
0
  6
CONTINUOUS
 62
             2
100
AcDbLine
 10
2397.7008221515339
 20
1687.2455000000009
 11
2395.7660221515339
 21
1687.2455000000009
  0
LINE
  5
156
100
AcDbEntity
  8
0
  6
CONTINUOUS
 62
             2
100
AcDbLine
 10
2395.3044221515352
 20
1686.4450999999999
 11
2398.1628221515339
 21
1686.4450999999999
  0
LINE
  5
155
100
AcDbEntity
  8
0
  6
CONTINUOUS
 62
             2
100
AcDbLine
 10
2398.624422151534
 20
1685.6451
 11
2394.8424221515338
 21
1685.6451
  0
LINE
  5
154
100
AcDbEntity
  8
0
  6
CONTINUOUS
 62
             2
100
AcDbLine
 10
2394.3804221515352
 20
1684.8451
 11
2399.0864221515349
 21
1684.8451
  0
LINE
  5
153
100
AcDbEntity
  8
0
  6
CONTINUOUS
 62
             2
100
AcDbLine
 10
2399.5484221515349
 20
1684.0451
 11
2393.9184221515338
 21
1684.0451
  0
LINE
  5
152
100
AcDbEntity
  8
0
  6
CONTINUOUS
 62
             2
100
AcDbLine
 10
2393.4564221515361
 20
1683.2447000000011
 11
2400.0104221515348
 21
1683.2447000000011
  0
LINE
  5
151
100
AcDbEntity
  8
0
  6
CONTINUOUS
 62
             2
100
AcDbLine
 10
2400.4720221515349
 20
1682.4450999999999
 11
2392.9948221515351
 21
1682.4450999999999
  0
LINE
  5
150
100
AcDbEntity
  8
0
  6
CONTINUOUS
 62
             2
100
AcDbLine
 10
2392.5328221515351
 20
1681.6446999999989
 11
2400.9340221515349
 21
1681.6446999999989
  0
LINE
  5
14F
100
AcDbEntity
  8
0
  6
CONTINUOUS
 62
             2
100
AcDbLine
 10
2401.3960221515349
 20
1680.8450999999991
 11
2392.0708221515351
 21
1680.8450999999991
  0
LINE
  5
14E
100
AcDbEntity
  8
0
  6
CONTINUOUS
 62
             2
100
AcDbLine
 10
2391.6088221515352
 20
1680.0446999999999
 11
2401.8580221515349
 21
1680.0446999999999
  0
LINE
  5
14D
100
AcDbEntity
  8
0
  6
CONTINUOUS
 62
             2
100
AcDbLine
 10
2402.3200221515349
 20
1679.2447
 11
2391.1468221515338
 21
1679.2447
  0
LINE
  5
14C
100
AcDbEntity
  8
0
  6
CONTINUOUS
 62
             2
100
AcDbLine
 10
2390.6852221515351
 20
1678.4447000000009
 11
2402.781622151535
 21
1678.4447000000009
  0
LINE
  5
14B
100
AcDbEntity
  8
0
  6
CONTINUOUS
 62
             2
100
AcDbLine
 10
2390.4840221515351
 20
1678.0954999999999
 11
2402.9840221515351
 21
1678.0954999999999
  0
LINE
  5
14A
100
AcDbEntity
  8
0
  6
CONTINUOUS
 62
             2
100
AcDbLine
 10
2396.7340221515351
 20
1688.9206999999999
 11
2390.4840221515351
 21
1678.0954999999999
  0
LINE
  5
149
100
AcDbEntity
  8
0
  6
CONTINUOUS
 62
             2
100
AcDbLine
 10
2402.9840221515351
 20
1678.0954999999999
 11
2396.7340221515351
 21
1688.9206999999999
  0
LINE
  5
148
100
AcDbEntity
  8
0
  6
CONTINUOUS
 62
             2
100
AcDbLine
 10
2421.4820221515351
 20
1693.6695
 11
2412.8216221515349
 21
1688.6702999999991
  0
LINE
  5
147
100
AcDbEntity
  8
0
  6
CONTINUOUS
 62
             2
100
AcDbLine
 10
2416.4820221515351
 20
1685.0094999999999
 11
2421.4820221515351
 21
1693.6695
  0
LINE
  5
146
100
AcDbEntity
  8
0
  6
CONTINUOUS
 62
             2
100
AcDbLine
 10
2371.9848221515349
 20
1644.1727000000001
 11
2421.4820221515351
 21
1693.6695
  0
LINE
  5
145
100
AcDbEntity
  8
0
  6
CONTINUOUS
 62
             2
100
AcDbLine
 10
2336.7328221515349
 20
1644.1727000000001
 11
2371.9848221515349
 21
1644.1727000000001
  0
LINE
  5
144
100
AcDbEntity
  8
0
  6
CONTINUOUS
 62
             2
100
AcDbLine
 10
2336.7328221515349
 20
1616.2155000000009
 11
2336.7328221515349
 21
1644.1727000000001
  0
LINE
  5
143
100
AcDbEntity
  8
2
  6
DOT_CENTER
 62
             7
100
AcDbLine
 10
2519.3068529207658
 20
1723.449900000001
 11
2314.7396221515351
 21
1723.449900000001
  0
LINE
  5
142
100
AcDbEntity
  8
2
  6
DOT_CENTER
 62
             7
100
AcDbLine
 10
2519.3068529207658
 20
1604.5651
 11
2519.3068529207658
 21
1723.449900000001
  0
LINE
  5
141
100
AcDbEntity
  8
2
  6
DOT_CENTER
 62
             7
100
AcDbLine
 10
2314.7396221515351
 20
1604.5651
 11
2519.3068529207658
 21
1604.5651
  0
LINE
  5
140
100
AcDbEntity
  8
2
  6
DOT_CENTER
 62
             7
100
AcDbLine
 10
2314.7396221515351
 20
1723.449900000001
 11
2314.7396221515351
 21
1604.5651
  0
LINE
  5
13F
100
AcDbEntity
  8
0
  6
CONTINUOUS
 62
             2
100
AcDbLine
 10
2410.8756221515359
 20
1654.7786999999989
 11
2413.7048221515352
 21
1651.9503
  0
LINE
  5
13E
100
AcDbEntity
  8
0
  6
CONTINUOUS
 62
             2
100
AcDbLine
 10
2396.7328221515349
 20
1688.9206999999999
 11
2393.9048221515341
 21
1691.7491
  0
LINE
  5
13D
100
AcDbEntity
  8
0
  6
DOTTED
 62
             7
100
AcDbLine
 10
2376.7328221515349
 20
1708.9203
 11
2379.5620221515351
 21
1706.0918999999999
  0
LINE
  5
13C
100
AcDbEntity
  8
0
  6
DOTTED
 62
             7
100
AcDbLine
 10
2372.7328221515349
 20
1708.9203
 11
2376.7328221515349
 21
1708.9203
  0
LINE
  5
13B
100
AcDbEntity
  8
0
  6
CONTINUOUS
 62
             7
100
AcDbLine
 10
2356.7328221515349
 20
1708.9203
 11
2360.7328221515349
 21
1708.9203
  0
LINE
  5
13A
100
AcDbEntity
  8
0
  6
CONTINUOUS
 62
             7
100
AcDbLine
 10
2356.7328221515349
 20
1704.9203
 11
2356.7328221515349
 21
1708.9203
  0
LINE
  5
139
100
AcDbEntity
  8
0
  6
CONTINUOUS
 62
             2
100
AcDbLine
 10
2356.7328221515349
 20
1684.1723
 11
2356.7328221515349
 21
1688.1727000000001
  0
LINE
  5
138
100
AcDbEntity
  8
1
  6
DOTTED
 62
             3
100
AcDbLine
 10
2424.214422151535
 20
1556.2390999999991
 11
2546.2522943112222
 21
1556.2390999999991
  0
LINE
  5
137
100
AcDbEntity
  8
1
  6
DOTTED
 62
             3
100
AcDbLine
 10
2424.214422151535
 20
1604.5651
 11
2424.214422151535
 21
1556.2390999999991
  0
LINE
  5
136
100
AcDbEntity
  8
0
  6
CONTINUOUS
 62
             2
100
AcDbLine
 10
2649.5006067669192
 20
1714.9951000000001
 11
2649.5006067669192
 21
1890.3841153846161
  0
LINE
  5
135
100
AcDbEntity
  8
1
  6
CONTINUOUS
 62
             2
100
AcDbLine
 10
1571.5
 20
526.99999999999955
 11
1599.4992989093309
 21
526.99999999999955
  0
LINE
  5
134
100
AcDbEntity
  8
1
  6
CONTINUOUS
 62
             2
100
AcDbLine
 10
1581.5
 20
871.00000000000023
 11
1598.0
 21
871.00000000000023
  0
LINE
  5
133
100
AcDbEntity
  8
1
  6
CONTINUOUS
 62
             2
100
AcDbLine
 10
1586.5
 20
770.00050000000056
 11
1586.5
 21
792.00050000000033
  0
LINE
  5
132
100
AcDbEntity
  8
1
  6
CONTINUOUS
 62
             2
100
AcDbLine
 10
1586.5
 20
792.00050000000033
 11
1586.5
 21
796.00050000000033
  0
LINE
  5
131
100
AcDbEntity
  8
1
  6
CONTINUOUS
 62
             2
100
AcDbLine
 10
1596.5
 20
796.00050000000033
 11
1586.5
 21
796.00050000000033
  0
LINE
  5
130
100
AcDbEntity
  8
1
  6
CONTINUOUS
 62
             2
100
AcDbLine
 10
1596.5
 20
766.00050000000033
 11
1586.5
 21
766.00050000000033
  0
LINE
  5
12F
100
AcDbEntity
  8
1
  6
CONTINUOUS
 62
             2
100
AcDbLine
 10
1596.5
 20
683.49999999999932
 11
1596.5
 21
582.99999999999932
  0
LINE
  5
12E
100
AcDbEntity
  8
1
  6
CONTINUOUS
 62
             2
100
AcDbLine
 10
1583.9999999756089
 20
688.49999999999932
 11
1583.9999999756089
 21
708.49899999999957
  0
LINE
  5
12D
100
AcDbEntity
  8
1
  6
CONTINUOUS
 62
             2
100
AcDbLine
 10
1583.9999999756089
 20
708.49899999999957
 11
1583.9999999756089
 21
713.49999999999932
  0
LINE
  5
12C
100
AcDbEntity
  8
1
  6
CONTINUOUS
 62
             2
100
AcDbLine
 10
1596.5
 20
833.99999999999932
 11
1596.5
 21
796.00050000000033
  0
LINE
  5
12B
100
AcDbEntity
  8
1
  6
CONTINUOUS
 62
             2
100
AcDbLine
 10
1583.9999999756089
 20
713.49999999999932
 11
1596.5
 21
713.49999999999932
  0
LINE
  5
12A
100
AcDbEntity
  8
1
  6
CONTINUOUS
 62
             2
100
AcDbLine
 10
1583.9999999756089
 20
683.49999999999932
 11
1583.9999999756089
 21
688.49999999999932
  0
LINE
  5
129
100
AcDbEntity
  8
1
  6
CONTINUOUS
 62
             2
100
AcDbLine
 10
1596.5
 20
683.49999999999932
 11
1583.9999999756089
 21
683.49999999999932
  0
LINE
  5
128
100
AcDbEntity
  8
1
  6
CONTINUOUS
 62
             2
100
AcDbLine
 10
1663.000500000001
 20
797.49999999999932
 11
1663.000500000001
 21
713.49999999999932
  0
LINE
  5
127
100
AcDbEntity
  8
1
  6
CONTINUOUS
 62
             2
100
AcDbLine
 10
1760.000500000001
 20
797.49999999999932
 11
1663.000500000001
 21
797.49999999999932
  0
LINE
  5
126
100
AcDbEntity
  8
1
  6
CONTINUOUS
 62
             2
100
AcDbLine
 10
1760.000500000001
 20
713.49999999999932
 11
1760.000500000001
 21
797.49999999999932
  0
LINE
  5
125
100
AcDbEntity
  8
1
  6
CONTINUOUS
 62
             2
100
AcDbLine
 10
1586.5
 20
766.00050000000033
 11
1586.5
 21
770.00050000000056
  0
LINE
  5
124
100
AcDbEntity
  8
1
  6
CONTINUOUS
 62
             2
100
AcDbLine
 10
1823.5
 20
523.99999999999955
 11
1823.5
 21
597.49999999999932
  0
LINE
  5
123
100
AcDbEntity
  8
1
  6
CONTINUOUS
 62
             2
100
AcDbLine
 10
1823.5
 20
597.49999999999932
 11
1820.5003143636
 21
597.49999999999932
  0
LINE
  5
122
100
AcDbEntity
  8
1
  6
CONTINUOUS
 62
             2
100
AcDbLine
 10
1823.5
 20
737.50049999999919
 11
1820.8
 21
737.50049999999919
  0
LINE
  5
121
100
AcDbEntity
  8
1
  6
CONTINUOUS
 62
             2
100
AcDbLine
 10
1596.5
 20
833.99999999999932
 11
1581.5
 21
833.99999999999932
  0
LINE
  5
120
100
AcDbEntity
  8
1
  6
DOT_CENTER
 62
             1
100
AcDbLine
 10
1579.6846921480351
 20
781.00050000000033
 11
1599.8743523465921
 21
781.00050000000033
  0
LINE
  5
11F
100
AcDbEntity
  8
1
  6
CONTINUOUS
 62
             2
100
AcDbLine
 10
1581.4103398014429
 20
792.00050000000033
 11
1581.4103398014429
 21
770.00050000000033
  0
LINE
  5
11E
100
AcDbEntity
  8
1
  6
CONTINUOUS
 62
             2
100
AcDbLine
 10
1586.5
 20
770.00050000000056
 11
1581.4103398014429
 21
770.00050000000033
  0
LINE
  5
11D
100
AcDbEntity
  8
1
  6
CONTINUOUS
 62
             2
100
AcDbLine
 10
1586.5
 20
792.00050000000033
 11
1581.4103398014429
 21
792.00050000000033
  0
LINE
  5
11C
100
AcDbEntity
  8
1
  6
DOT_CENTER
 62
             1
100
AcDbLine
 10
1588.0
 20
523.98308027424264
 11
1588.0
 21
542.08308027424255
  0
LINE
  5
11B
100
AcDbEntity
  8
1
  6
DOT_CENTER
 62
             1
100
AcDbLine
 10
1582.431795834472
 20
698.49999999999932
 11
1608.4768812598429
 21
698.49999999999932
  0
LINE
  5
11A
100
AcDbEntity
  8
1
  6
CONTINUOUS
 62
             2
100
AcDbLine
 10
1823.5
 20
648.50000000000023
 11
1823.5
 21
737.50049999999919
  0
LINE
  5
119
100
AcDbEntity
  8
1
  6
CONTINUOUS
 62
             2
100
AcDbLine
 10
1842.0
 20
648.49999999999932
 11
1823.5
 21
648.50000000000023
  0
LINE
  5
118
100
AcDbEntity
  8
1
  6
CONTINUOUS
 62
             2
100
AcDbLine
 10
1830.0
 20
648.49999999999932
 11
1830.0
 21
604.49999999999932
  0
LINE
  5
117
100
AcDbEntity
  8
1
  6
CONTINUOUS
 62
             2
100
AcDbLine
 10
1830.0
 20
604.49999999999932
 11
1820.500284666648
 21
604.49999999999932
  0
LINE
  5
116
100
AcDbEntity
  8
1
  6
CONTINUOUS
 62
             2
100
AcDbLine
 10
1842.0
 20
597.49999999999932
 11
1823.5
 21
597.49999999999932
  0
LINE
  5
115
100
AcDbEntity
  8
1
  6
CONTINUOUS
 62
             2
100
AcDbLine
 10
1842.0
 20
597.49999999999932
 11
1842.0
 21
648.49999999999932
  0
LINE
  5
114
100
AcDbEntity
  8
1
  6
CONTINUOUS
 62
             2
100
AcDbLine
 10
1571.5
 20
538.99999999999955
 11
1571.5
 21
526.99999999999955
  0
LINE
  5
113
100
AcDbEntity
  8
1
  6
CONTINUOUS
 62
             2
100
AcDbLine
 10
1842.0
 20
788.50049999999919
 11
1823.5
 21
788.50049999999919
  0
LINE
  5
112
100
AcDbEntity
  8
1
  6
CONTINUOUS
 62
             2
100
AcDbLine
 10
1823.5
 20
833.99999999999932
 11
1823.5
 21
788.50049999999919
  0
LINE
  5
111
100
AcDbEntity
  8
1
  6
CONTINUOUS
 62
             2
100
AcDbLine
 10
1830.0
 20
788.50049999999919
 11
1830.0
 21
744.50049999999919
  0
LINE
  5
110
100
AcDbEntity
  8
1
  6
CONTINUOUS
 62
             2
100
AcDbLine
 10
1830.0
 20
744.50049999999919
 11
1811.5
 21
744.50049999999919
  0
LINE
  5
10F
100
AcDbEntity
  8
1
  6
CONTINUOUS
 62
             2
100
AcDbLine
 10
1842.0
 20
737.50049999999919
 11
1823.5
 21
737.50049999999919
  0
LINE
  5
10E
100
AcDbEntity
  8
1
  6
CONTINUOUS
 62
             2
100
AcDbLine
 10
1842.0
 20
737.50049999999919
 11
1842.0
 21
788.50049999999919
  0
LINE
  5
10D
100
AcDbEntity
  8
1
  6
CONTINUOUS
 62
             2
100
AcDbLine
 10
1581.5
 20
871.00000000000023
 11
1581.5
 21
833.99999999999932
  0
LINE
  5
10C
100
AcDbEntity
  8
1
  6
CONTINUOUS
 62
             2
100
AcDbLine
 10
1834.8288786061901
 20
833.99999999999932
 11
1834.8288786061901
 21
871.00000000000023
  0
LINE
  5
10B
100
AcDbEntity
  8
1
  6
CONTINUOUS
 62
             2
100
AcDbLine
 10
1834.8288786061901
 20
833.99999999999932
 11
1823.5
 21
833.99999999999932
  0
LINE
  5
10A
100
AcDbEntity
  8
1
  6
DOT_CENTER
 62
             1
100
AcDbLine
 10
1710.0
 20
930.99999999999977
 11
1710.0
 21
693.27016897884505
  0
LINE
  5
109
100
AcDbEntity
  8
1
  6
DOT_CENTER
 62
             1
100
AcDbLine
 10
1820.2223389725939
 20
768.49999999999932
 11
1847.5367541690589
 21
768.49999999999932
  0
LINE
  5
108
100
AcDbEntity
  8
1
  6
CONTINUOUS
 62
             2
100
AcDbLine
 10
1581.5
 20
854.00000000000023
 11
1608.5
 21
854.00000000000023
  0
LINE
  5
107
100
AcDbEntity
  8
1
  6
CONTINUOUS
 62
             2
100
AcDbLine
 10
1750.000500000001
 20
919.49999999999977
 11
1750.000500000001
 21
931.00000000000045
  0
LINE
  5
106
100
AcDbEntity
  8
0
  6
CONTINUOUS
 62
             2
100
AcDbLine
 10
1750.000500000001
 20
931.00000000000045
 11
1657.0
 21
930.99999999999977
  0
LINE
  5
105
100
AcDbEntity
  8
0
  6
CONTINUOUS
 62
             2
100
AcDbLine
 10
1657.0
 20
930.99999999999977
 11
1627.0
 21
930.99999999999977
  0
LINE
  5
104
100
AcDbEntity
  8
0
  6
CONTINUOUS
 62
             2
100
AcDbLine
 10
1627.0
 20
930.99999999999977
 11
1613.2394839142421
 21
930.99999999999977
  0
LINE
  5
103
100
AcDbEntity
  8
0
  6
CONTINUOUS
 62
             2
100
AcDbLine
 10
1657.0
 20
930.99999999999977
 11
1657.0
 21
942.00000000000136
  0
LINE
  5
102
100
AcDbEntity
  8
1
  6
CONTINUOUS
 62
             7
100
AcDbLine
 10
1771.0
 20
914.47616476412554
 11
1771.0
 21
919.49999999999977
  0
LINE
  5
101
100
AcDbEntity
  8
1
  6
CONTINUOUS
 62
             2
100
AcDbLine
 10
1598.0
 20
871.00000000000023
 11
1608.5
 21
871.00000000000023
  0
LINE
  5
100
100
AcDbEntity
  8
1
  6
CONTINUOUS
 62
             2
100
AcDbLine
 10
1663.000500000001
 20
713.49999999999932
 11
1760.000500000001
 21
713.49999999999932
  0
LINE
  5
FF
100
AcDbEntity
  8
1
  6
CONTINUOUS
 62
             2
100
AcDbLine
 10
1596.5
 20
713.49999999999932
 11
1596.5
 21
683.49999999999932
  0
LINE
  5
FE
100
AcDbEntity
  8
1
  6
CONTINUOUS
 62
             2
100
AcDbLine
 10
1596.5
 20
796.00050000000033
 11
1596.5
 21
766.00050000000033
  0
LINE
  5
FD
100
AcDbEntity
  8
1
  6
CONTINUOUS
 62
             2
100
AcDbLine
 10
1596.5
 20
766.00050000000033
 11
1596.5
 21
713.49999999999932
  0
LINE
  5
FC
100
AcDbEntity
  8
1
  6
DOT_CENTER
 62
             1
100
AcDbLine
 10
1794.000500000001
 20
1527.525255177087
 11
1794.000500000001
 21
1541.2252551770871
  0
LINE
  5
FB
100
AcDbEntity
  8
1
  6
DOT_CENTER
 62
             1
100
AcDbLine
 10
1787.0
 20
1533.9990000000021
 11
1801.099999999999
 21
1533.9990000000021
  0
LINE
  5
FA
100
AcDbEntity
  8
1
  6
DOT_CENTER
 62
             1
100
AcDbLine
 10
1794.000500000001
 20
1611.998
 11
1794.000500000001
 21
1639.897999999999
  0
LINE
  5
F9
100
AcDbEntity
  8
1
  6
DOT_CENTER
 62
             1
100
AcDbLine
 10
1779.247068430027
 20
1625.9990000000021
 11
1809.247068430027
 21
1625.9990000000021
  0
LINE
  5
F8
100
AcDbEntity
  8
1
  6
CONTINUOUS
 62
             2
100
AcDbLine
 10
1646.9079772881121
 20
1575.4990000000021
 11
1637.093022711887
 21
1575.4990000000021
  0
LINE
  5
F7
100
AcDbEntity
  8
1
  6
CONTINUOUS
 62
             2
100
AcDbLine
 10
1652.000500000001
 20
1566.9990000000021
 11
1646.9079772881121
 21
1575.4990000000021
  0
LINE
  5
F6
100
AcDbEntity
  8
1
  6
CONTINUOUS
 62
             2
100
AcDbLine
 10
1646.9079772881121
 20
1558.4990000000021
 11
1652.000500000001
 21
1566.9990000000021
  0
LINE
  5
F5
100
AcDbEntity
  8
1
  6
CONTINUOUS
 62
             2
100
AcDbLine
 10
1637.093022711887
 20
1558.4990000000021
 11
1646.9079772881121
 21
1558.4990000000021
  0
LINE
  5
F4
100
AcDbEntity
  8
1
  6
CONTINUOUS
 62
             2
100
AcDbLine
 10
1632.000500000001
 20
1566.9990000000021
 11
1637.093022711887
 21
1558.4990000000021
  0
LINE
  5
F3
100
AcDbEntity
  8
1
  6
CONTINUOUS
 62
             2
100
AcDbLine
 10
1637.093022711887
 20
1575.4990000000021
 11
1632.000500000001
 21
1566.9990000000021
  0
LINE
  5
F2
100
AcDbEntity
  8
1
  6
CONTINUOUS
 62
             2
100
AcDbLine
 10
1637.093022711887
 20
1607.4990000000021
 11
1632.000500000001
 21
1598.9990000000021
  0
LINE
  5
F1
100
AcDbEntity
  8
1
  6
CONTINUOUS
 62
             2
100
AcDbLine
 10
1646.9079772881121
 20
1607.4990000000021
 11
1637.093022711887
 21
1607.4990000000021
  0
LINE
  5
F0
100
AcDbEntity
  8
1
  6
CONTINUOUS
 62
             2
100
AcDbLine
 10
1652.000500000001
 20
1598.9990000000021
 11
1646.9079772881121
 21
1607.4990000000021
  0
LINE
  5
EF
100
AcDbEntity
  8
1
  6
CONTINUOUS
 62
             2
100
AcDbLine
 10
1646.9079772881121
 20
1590.4990000000021
 11
1652.000500000001
 21
1598.9990000000021
  0
LINE
  5
EE
100
AcDbEntity
  8
1
  6
CONTINUOUS
 62
             2
100
AcDbLine
 10
1637.093022711887
 20
1590.4990000000021
 11
1646.9079772881121
 21
1590.4990000000021
  0
LINE
  5
ED
100
AcDbEntity
  8
1
  6
CONTINUOUS
 62
             2
100
AcDbLine
 10
1632.000500000001
 20
1598.9990000000021
 11
1637.093022711887
 21
1590.4990000000021
  0
LINE
  5
EC
100
AcDbEntity
  8
0
  6
CONTINUOUS
 62
             2
100
AcDbLine
 10
1598.0005000000001
 20
1639.9990000000021
 11
1598.0005000000001
 21
1546.3497677443161
  0
LINE
  5
EB
100
AcDbEntity
  8
0
  6
CONTINUOUS
 62
             2
100
AcDbLine
 10
1645.000500000001
 20
1639.9990000000021
 11
1598.0005000000001
 21
1639.9990000000021
  0
LINE
  5
EA
100
AcDbEntity
  8
1
  6
CONTINUOUS
 62
             2
100
AcDbLine
 10
1800.0
 20
1559.9990000000021
 11
1800.0
 21
1599.9990000000021
  0
LINE
  5
E9
100
AcDbEntity
  8
1
  6
CONTINUOUS
 62
             2
100
AcDbLine
 10
1670.000500000001
 20
1499.9990000000021
 11
1665.436768401971
 21
1503.6499852784259
  0
LINE
  5
E8
100
AcDbEntity
  8
1
  6
CONTINUOUS
 62
             2
100
AcDbLine
 10
1645.000500000001
 20
1639.9990000000021
 11
1670.000500000001
 21
1659.9990000000021
  0
LINE
  5
E7
100
AcDbEntity
  8
1
  6
CONTINUOUS
 62
             2
100
AcDbLine
 10
1800.0
 20
1599.9990000000021
 11
1745.000500000001
 21
1659.9990000000021
  0
LINE
  5
E6
100
AcDbEntity
  8
1
  6
CONTINUOUS
 62
             2
100
AcDbLine
 10
1745.000500000001
 20
1659.9990000000021
 11
1728.111211934877
 21
1659.9990000000021
  0
LINE
  5
E5
100
AcDbEntity
  8
1
  6
DOT_CENTER
 62
             1
100
AcDbLine
 10
1745.1787839223441
 20
1407.7490000000021
 11
1766.1787839223441
 21
1407.7490000000021
  0
LINE
  5
E4
100
AcDbEntity
  8
1
  6
DOT_CENTER
 62
             1
100
AcDbLine
 10
1824.7225489923551
 20
1674.9990000000021
 11
1846.7225489923551
 21
1674.9990000000021
  0
LINE
  5
E3
100
AcDbEntity
  8
1
  6
CONTINUOUS
 62
             2
100
AcDbLine
 10
1754.000499999999
 20
1374.9990000000021
 11
1754.000499999999
 21
1377.6703721118531
  0
LINE
  5
E2
100
AcDbEntity
  8
1
  6
CONTINUOUS
 62
             2
100
AcDbLine
 10
1669.5005000000019
 20
1381.2990000000009
 11
1668.368202605001
 21
1415.7963273009791
  0
LINE
  5
E1
100
AcDbEntity
  8
1
  6
CONTINUOUS
 62
             2
100
AcDbLine
 10
1754.000499999999
 20
1374.9990000000021
 11
1669.5005000000019
 21
1381.2990000000009
  0
LINE
  5
E0
100
AcDbEntity
  8
1
  6
CONTINUOUS
 62
             2
100
AcDbLine
 10
1830.000500000001
 20
1694.9990000000021
 11
1830.000500000001
 21
1644.9990000000021
  0
LINE
  5
DF
100
AcDbEntity
  8
1
  6
CONTINUOUS
 62
             2
100
AcDbLine
 10
1842.000500000001
 20
1694.9990000000021
 11
1830.000500000001
 21
1694.9990000000021
  0
LINE
  5
DE
100
AcDbEntity
  8
1
  6
CONTINUOUS
 62
             2
100
AcDbLine
 10
1842.000500000001
 20
1644.9990000000021
 11
1842.000500000001
 21
1694.9990000000021
  0
LINE
  5
DD
100
AcDbEntity
  8
0
  6
DOT_CENTER
 62
             1
100
AcDbLine
 10
1710.000500000001
 20
1370.6995000000011
 11
1710.000500000001
 21
1496.000000000002
  0
LINE
  5
DC
100
AcDbEntity
  8
0
  6
DOT_CENTER
 62
             1
100
AcDbLine
 10
1841.500500000001
 20
1579.9990000000021
 11
1781.5788858838309
 21
1579.9990000000021
  0
LINE
  5
DB
100
AcDbEntity
  8
1
  6
DOT_CENTER
 62
             1
100
AcDbLine
 10
1846.7225489923551
 20
1484.9990000000021
 11
1824.7225489923551
 21
1484.9990000000021
  0
LINE
  5
DA
100
AcDbEntity
  8
1
  6
CONTINUOUS
 62
             2
100
AcDbLine
 10
1830.000500000001
 20
1514.9990000000021
 11
1830.000500000001
 21
1464.9990000000021
  0
LINE
  5
D9
100
AcDbEntity
  8
1
  6
CONTINUOUS
 62
             2
100
AcDbLine
 10
1830.000500000001
 20
1464.9990000000021
 11
1842.000500000001
 21
1464.9990000000021
  0
LINE
  5
D8
100
AcDbEntity
  8
1
  6
CONTINUOUS
 62
             2
100
AcDbLine
 10
1842.000500000001
 20
1464.9990000000021
 11
1842.000500000001
 21
1514.9990000000021
  0
LINE
  5
D7
100
AcDbEntity
  8
1
  6
CONTINUOUS
 62
             2
100
AcDbLine
 10
1830.000500000001
 20
1694.9990000000021
 11
1802.7759843573331
 21
1668.9088391757771
  0
LINE
  5
D6
100
AcDbEntity
  8
1
  6
CONTINUOUS
 62
             2
100
AcDbLine
 10
1830.000500000001
 20
1644.9990000000021
 11
1824.0171498611089
 21
1639.264956116896
  0
LINE
  5
D5
100
AcDbEntity
  8
1
  6
CONTINUOUS
 62
             2
100
AcDbLine
 10
1827.78345735365
 20
1631.374334130581
 11
1842.000500000001
 21
1644.9990000000021
  0
LINE
  5
D4
100
AcDbEntity
  8
1
  6
CONTINUOUS
 62
             2
100
AcDbLine
 10
1842.000500000001
 20
1514.9990000000021
 11
1827.78345735365
 21
1528.6236658694211
  0
LINE
  5
D3
100
AcDbEntity
  8
1
  6
CONTINUOUS
 62
             2
100
AcDbLine
 10
1830.000500000001
 20
1514.9990000000021
 11
1824.0171498611089
 21
1520.733043883105
  0
LINE
  5
D2
100
AcDbEntity
  8
1
  6
CONTINUOUS
 62
             2
100
AcDbLine
 10
1830.000500000001
 20
1464.9990000000021
 11
1802.775984357334
 21
1491.0891608242241
  0
LINE
  5
D1
100
AcDbEntity
  8
1
  6
CONTINUOUS
 62
             2
100
AcDbLine
 10
1836.000500000001
 20
1554.7750034887381
 11
1836.000500000001
 21
1605.2229965112631
  0
LINE
  5
D0
100
AcDbEntity
  8
1
  6
CONTINUOUS
 62
             2
100
AcDbLine
 10
1680.000500000001
 20
1722.9990000000021
 11
1740.000500000001
 21
1722.9990000000021
  0
LINE
  5
CF
100
AcDbEntity
  8
1
  6
CONTINUOUS
 62
             2
100
AcDbLine
 10
1740.000500000001
 20
1722.9990000000021
 11
1740.000500000001
 21
1704.947989591755
  0
LINE
  5
CE
100
AcDbEntity
  8
1
  6
CONTINUOUS
 62
             2
100
AcDbLine
 10
1680.000500000001
 20
1722.9990000000021
 11
1680.000500000001
 21
1704.9479895917509
  0
LINE
  5
CD
100
AcDbEntity
  8
1
  6
CONTINUOUS
 62
             2
100
AcDbLine
 10
1680.000500000001
 20
1436.9990000000021
 11
1685.194845552591
 21
1436.9990000000021
  0
LINE
  5
CC
100
AcDbEntity
  8
1
  6
CONTINUOUS
 62
             2
100
AcDbLine
 10
1740.000500000001
 20
1436.9990000000021
 11
1740.000500000001
 21
1455.0500104082489
  0
LINE
  5
CB
100
AcDbEntity
  8
1
  6
CONTINUOUS
 62
             2
100
AcDbLine
 10
1680.000500000001
 20
1436.9990000000021
 11
1680.000500000001
 21
1455.0500104082489
  0
LINE
  5
CA
100
AcDbEntity
  8
1
  6
CONTINUOUS
 62
             2
100
AcDbLine
 10
1668.000500000001
 20
1426.9990000000021
 11
1685.194845552591
 21
1426.9990000000021
  0
LINE
  5
C9
100
AcDbEntity
  8
1
  6
CONTINUOUS
 62
             2
100
AcDbLine
 10
1760.000500000001
 20
1374.9990000000021
 11
1754.000499999999
 21
1377.6703721118531
  0
LINE
  5
C8
100
AcDbEntity
  8
1
  6
CONTINUOUS
 62
             2
100
AcDbLine
 10
1663.000500000001
 20
1418.186182474931
 11
1663.000500000001
 21
1421.83004121519
  0
LINE
  5
C7
100
AcDbEntity
  8
1
  6
CONTINUOUS
 62
             2
100
AcDbLine
 10
1663.000500000001
 20
1421.83004121519
 11
1668.2481608294111
 21
1419.453600063986
  0
LINE
  5
C6
100
AcDbEntity
  8
1
  6
CONTINUOUS
 62
             2
100
AcDbLine
 10
1760.000500000001
 20
1377.9028898309091
 11
1760.000500000001
 21
1374.9990000000021
  0
LINE
  5
C5
100
AcDbEntity
  8
1
  6
CONTINUOUS
 62
             2
100
AcDbLine
 10
1735.5312436087199
 20
1436.9990000000021
 11
1735.5312436087199
 21
1426.9990000000021
  0
LINE
  5
C4
100
AcDbEntity
  8
1
  6
CONTINUOUS
 62
             2
100
AcDbLine
 10
1685.194845552591
 20
1436.9990000000021
 11
1685.194845552591
 21
1426.9990000000021
  0
LINE
  5
C3
100
AcDbEntity
  8
1
  6
CONTINUOUS
 62
             2
100
AcDbLine
 10
1754.000499999999
 20
1380.6200332155049
 11
1754.000499999999
 21
1426.9990000000021
  0
LINE
  5
C2
100
AcDbEntity
  8
1
  6
CONTINUOUS
 62
             2
100
AcDbLine
 10
1668.2481608294111
 20
1419.453600063986
 11
1668.000500000001
 21
1426.9990000000021
  0
LINE
  5
C1
100
AcDbEntity
  8
1
  6
CONTINUOUS
 62
             2
100
AcDbLine
 10
1754.000499999999
 20
1380.6200332155049
 11
1760.000500000001
 21
1377.9028898309091
  0
LINE
  5
C0
100
AcDbEntity
  8
1
  6
CONTINUOUS
 62
             2
100
AcDbLine
 10
1754.000499999999
 20
1377.6703721118531
 11
1668.368202605001
 21
1415.7963273009791
  0
LINE
  5
BF
100
AcDbEntity
  8
1
  6
CONTINUOUS
 62
             2
100
AcDbLine
 10
1735.5312436087199
 20
1426.9990000000021
 11
1754.000499999999
 21
1426.9990000000021
  0
LINE
  5
BE
100
AcDbEntity
  8
1
  6
CONTINUOUS
 62
             2
100
AcDbLine
 10
1735.5312436087199
 20
1436.9990000000021
 11
1740.000500000001
 21
1436.9990000000021
  0
LINE
  5
BD
100
AcDbEntity
  8
1
  6
CONTINUOUS
 62
             2
100
AcDbLine
 10
1685.194845552591
 20
1436.9990000000021
 11
1735.5312436087199
 21
1436.9990000000021
  0
LINE
  5
BC
100
AcDbEntity
  8
1
  6
CONTINUOUS
 62
             2
100
AcDbLine
 10
1685.194845552591
 20
1426.9990000000021
 11
1735.5312436087199
 21
1426.9990000000021
  0
LINE
  5
BB
100
AcDbEntity
  8
1
  6
CONTINUOUS
 62
             2
100
AcDbLine
 10
1668.368202605001
 20
1415.7963273009791
 11
1663.000500000001
 21
1418.186182474931
  0
LINE
  5
BA
100
AcDbEntity
  8
1
  6
CONTINUOUS
 62
             2
100
AcDbLine
 10
1668.2481608294111
 20
1419.453600063986
 11
1754.000499999999
 21
1380.6200332155049
  0
LINE
  5
B9
100
AcDbEntity
  8
1
  6
DOT_CENTER
 62
             1
100
AcDbLine
 10
340.98248032002482
 20
698.49999999999909
 11
376.80000000000052
 21
698.49999999999909
  0
LINE
  5
B8
100
AcDbEntity
  8
1
  6
CONTINUOUS
 62
             2
100
AcDbLine
 10
451.99999999999972
 20
961.00019705205705
 11
461.99999999999972
 21
961.00019705205705
  0
LINE
  5
B7
100
AcDbEntity
  8
1
  6
CONTINUOUS
 62
             2
100
AcDbLine
 10
461.99999999999972
 20
961.00019705205705
 11
466.99999999999972
 21
961.00019705205705
  0
LINE
  5
B6
100
AcDbEntity
  8
1
  6
CONTINUOUS
 62
             2
100
AcDbLine
 10
493.99949999999961
 20
973.00019705205705
 11
498.45843726685581
 21
973.00019705205705
  0
LINE
  5
B5
100
AcDbEntity
  8
1
  6
CONTINUOUS
 62
             2
100
AcDbLine
 10
483.99949999999961
 20
973.00019705205705
 11
493.99949999999961
 21
973.00019705205705
  0
LINE
  5
B4
100
AcDbEntity
  8
0
  6
CONTINUOUS
 62
             2
100
AcDbLine
 10
461.99999999999972
 20
961.00019705205705
 11
461.99999999999972
 21
955.99999999999955
  0
LINE
  5
B3
100
AcDbEntity
  8
0
  6
CONTINUOUS
 62
             2
100
AcDbLine
 10
493.99949999999961
 20
973.00019705205705
 11
493.99949999999961
 21
955.99999999999955
  0
LINE
  5
B2
100
AcDbEntity
  8
1
  6
CONTINUOUS
 62
             2
100
AcDbLine
 10
498.99999999999972
 20
983.00019705205705
 11
478.99999999999972
 21
983.00019705205705
  0
LINE
  5
B1
100
AcDbEntity
  8
1
  6
CONTINUOUS
 62
             2
100
AcDbLine
 10
478.99999999999972
 20
973.00019705205705
 11
483.99949999999961
 21
973.00019705205705
  0
LINE
  5
B0
100
AcDbEntity
  8
1
  6
CONTINUOUS
 62
             2
100
AcDbLine
 10
478.99999999999972
 20
983.00019705205705
 11
478.99999999999972
 21
973.00019705205705
  0
LINE
  5
AF
100
AcDbEntity
  8
1
  6
CONTINUOUS
 62
             2
100
AcDbLine
 10
466.99999999999972
 20
961.00019705205705
 11
466.99999999999972
 21
971.00019705205705
  0
LINE
  5
AE
100
AcDbEntity
  8
1
  6
CONTINUOUS
 62
             2
100
AcDbLine
 10
446.99999999999972
 20
961.00019705205705
 11
451.99999999999972
 21
961.00019705205705
  0
LINE
  5
AD
100
AcDbEntity
  8
1
  6
CONTINUOUS
 62
             2
100
AcDbLine
 10
446.99999999999972
 20
971.00019705205705
 11
446.99999999999972
 21
961.00019705205705
  0
LINE
  5
AC
100
AcDbEntity
  8
0
  6
CONTINUOUS
 62
             2
100
AcDbLine
 10
389.99999999999972
 20
930.99999999999955
 11
419.99999999999972
 21
930.99999999999955
  0
LINE
  5
AB
100
AcDbEntity
  8
0
  6
CONTINUOUS
 62
             2
100
AcDbLine
 10
419.99999999999972
 20
930.99999999999955
 11
419.99999999999972
 21
945.99999999999955
  0
LINE
  5
AA
100
AcDbEntity
  8
0
  6
CONTINUOUS
 62
             2
100
AcDbLine
 10
419.99999999999972
 20
945.99999999999955
 11
446.99999999999972
 21
945.99999999999955
  0
LINE
  5
A9
100
AcDbEntity
  8
0
  6
CONTINUOUS
 62
             2
100
AcDbLine
 10
446.99999999999972
 20
945.99999999999955
 11
446.99999999999972
 21
955.99999999999955
  0
LINE
  5
A8
100
AcDbEntity
  8
0
  6
CONTINUOUS
 62
             2
100
AcDbLine
 10
446.99999999999972
 20
955.99999999999955
 11
451.99999999999972
 21
955.99999999999955
  0
LINE
  5
A7
100
AcDbEntity
  8
0
  6
CONTINUOUS
 62
             2
100
AcDbLine
 10
451.99999999999972
 20
955.99999999999955
 11
451.99999999999972
 21
961.00019705205705
  0
LINE
  5
A6
100
AcDbEntity
  8
0
  6
CONTINUOUS
 62
             2
100
AcDbLine
 10
461.99999999999972
 20
955.99999999999955
 11
466.99999999999972
 21
955.99999999999955
  0
LINE
  5
A5
100
AcDbEntity
  8
0
  6
CONTINUOUS
 62
             2
100
AcDbLine
 10
466.99999999999972
 20
955.99999999999955
 11
466.99999999999972
 21
945.99999999999955
  0
LINE
  5
A4
100
AcDbEntity
  8
0
  6
CONTINUOUS
 62
             2
100
AcDbLine
 10
466.99999999999972
 20
945.99999999999955
 11
478.99949999999961
 21
945.99999999999955
  0
LINE
  5
A3
100
AcDbEntity
  8
0
  6
CONTINUOUS
 62
             2
100
AcDbLine
 10
478.99949999999961
 20
945.99999999999955
 11
478.99949999999961
 21
955.99999999999955
  0
LINE
  5
A2
100
AcDbEntity
  8
0
  6
CONTINUOUS
 62
             2
100
AcDbLine
 10
478.99949999999961
 20
955.99999999999955
 11
483.99949999999961
 21
955.99999999999955
  0
LINE
  5
A1
100
AcDbEntity
  8
0
  6
CONTINUOUS
 62
             2
100
AcDbLine
 10
483.99949999999961
 20
955.99999999999955
 11
483.99949999999961
 21
973.00019705205705
  0
LINE
  5
A0
100
AcDbEntity
  8
0
  6
CONTINUOUS
 62
             2
100
AcDbLine
 10
493.99949999999961
 20
955.99999999999955
 11
496.99969364045683
 21
955.99999999999955
  0
LINE
  5
9F
100
AcDbEntity
  8
0
  6
CONTINUOUS
 62
             2
100
AcDbLine
 10
451.99999999999972
 20
955.99999999999955
 11
461.99999999999972
 21
955.99999999999955
  0
LINE
  5
9E
100
AcDbEntity
  8
0
  6
CONTINUOUS
 62
             2
100
AcDbLine
 10
483.99949999999961
 20
955.99999999999955
 11
493.99949999999961
 21
955.99999999999955
  0
LINE
  5
9D
100
AcDbEntity
  8
0
  6
CONTINUOUS
 62
             2
100
AcDbLine
 10
466.99999999999972
 20
945.99999999999955
 11
446.99999999999972
 21
945.99999999999955
  0
LINE
  5
9C
100
AcDbEntity
  8
1
  6
CONTINUOUS
 62
             2
100
AcDbLine
 10
347.50000000116262
 20
539.0
 11
376.80000000000052
 21
539.0
  0
LINE
  5
9B
100
AcDbEntity
  8
1
  6
DOT_CENTER
 62
             1
100
AcDbLine
 10
469.99999999999972
 20
963.90049999999974
 11
469.99999999999972
 21
895.0
  0
LINE
  5
9A
100
AcDbEntity
  8
0
  6
DOT_CENTER
 62
             1
100
AcDbLine
 10
369.17621773871372
 20
768.49999999999909
 11
376.80000000000052
 21
768.49999999999909
  0
LINE
  5
99
100
AcDbEntity
  8
0
  6
DOT_CENTER
 62
             1
100
AcDbLine
 10
374.99949999999973
 20
775.80885643813644
 11
374.99949999999973
 21
761.50885643813626
  0
LINE
  5
98
100
AcDbEntity
  8
0
  6
DOT_CENTER
 62
             1
100
AcDbLine
 10
369.17621773871372
 20
628.49999999999909
 11
376.80000000000052
 21
628.49999999999909
  0
LINE
  5
97
100
AcDbEntity
  8
0
  6
DOT_CENTER
 62
             1
100
AcDbLine
 10
374.99949999999973
 20
635.80885643813644
 11
374.99949999999973
 21
621.50885643813626
  0
LINE
  5
96
100
AcDbEntity
  8
1
  6
CONTINUOUS
 62
             2
100
AcDbLine
 10
347.50000000116262
 20
539.0
 11
347.50000000116262
 21
527.0
  0
LINE
  5
95
100
AcDbEntity
  8
1
  6
DOT_CENTER
 62
             1
100
AcDbLine
 10
375.99999999999972
 20
542.083080274243
 11
375.99999999999972
 21
519.88308027424318
  0
LINE
  5
94
100
AcDbEntity
  8
1
  6
CONTINUOUS
 62
             2
100
AcDbLine
 10
341.49999999999937
 20
871.0005000000001
 11
341.49999999999937
 21
834.00049999999919
  0
LINE
  5
93
100
AcDbEntity
  8
1
  6
CONTINUOUS
 62
             2
100
AcDbLine
 10
341.49999999999937
 20
854.00050000000056
 11
376.80000000000052
 21
854.00050000000056
  0
LINE
  5
92
100
AcDbEntity
  8
1
  6
CONTINUOUS
 62
             2
100
AcDbLine
 10
351.49999999999937
 20
583.00000000000045
 11
351.49999999999937
 21
834.00049999999919
  0
LINE
  5
91
100
AcDbEntity
  8
1
  6
CONTINUOUS
 62
             2
100
AcDbLine
 10
351.49999999999937
 20
834.00049999999919
 11
341.49999999999937
 21
834.00049999999919
  0
LINE
  5
90
100
AcDbEntity
  8
1
  6
CONTINUOUS
 62
             2
100
AcDbLine
 10
341.49999999999937
 20
871.0005000000001
 11
376.80000000000052
 21
871.0005000000001
  0
LINE
  5
8F
100
AcDbEntity
  8
1
  6
CONTINUOUS
 62
             2
100
AcDbLine
 10
347.50000000116262
 20
527.0
 11
376.80000000000052
 21
527.0
  0
LINE
  5
8E
100
AcDbEntity
  8
1
  6
CONTINUOUS
 62
             2
100
AcDbLine
 10
446.99999999999972
 20
971.00019705205705
 11
466.99999999999972
 21
971.00019705205705
  0
LINE
  5
8D
100
AcDbEntity
  8
1
  6
CONTINUOUS
 62
             2
100
AcDbLine
 10
419.99999999999972
 20
930.99999999999955
 11
496.99969364045683
 21
930.99999999999955
  0
LINE
  5
8C
100
AcDbEntity
  8
1
  6
CONTINUOUS
 62
             2
100
AcDbLine
 10
326.99999999999977
 20
785.80000000000018
 11
351.49999999999937
 21
785.80000000000018
  0
LINE
  5
8B
100
AcDbEntity
  8
1
  6
CONTINUOUS
 62
             2
100
AcDbLine
 10
351.49999999999937
 20
785.80000000000018
 11
351.49999999999937
 21
723.10885756827975
  0
LINE
  5
8A
100
AcDbEntity
  8
1
  6
CONTINUOUS
 62
             2
100
AcDbLine
 10
351.49999999999937
 20
723.10885756827975
 11
326.99999999999977
 21
723.10885756827975
  0
LINE
  5
89
100
AcDbEntity
  8
1
  6
CONTINUOUS
 62
             2
100
AcDbLine
 10
326.99999999999977
 20
723.10885756827975
 11
326.99999999999977
 21
785.80000000000018
  0
LINE
  5
88
100
AcDbEntity
  8
1
  6
CONTINUOUS
 62
             2
100
AcDbLine
 10
376.80000000000052
 20
583.00000000000045
 11
351.49999999999937
 21
583.00000000000045
  0
LINE
  5
87
100
AcDbEntity
  8
0
  6
CONTINUOUS
 62
             2
100
AcDbLine
 10
496.99969364045683
 20
945.99999999999955
 11
478.99949999999961
 21
945.99999999999955
  0
LINE
  5
86
100
AcDbEntity
  8
0
  6
CONTINUOUS
 62
             2
100
AcDbLine
 10
549.99999999999977
 20
918.99943774238159
 11
549.99999999999977
 21
899.0
  0
LINE
  5
85
100
AcDbEntity
  8
0
  6
CONTINUOUS
 62
             2
100
AcDbLine
 10
389.99999999999972
 20
928.30000000000064
 11
389.99999999999972
 21
930.99999999999955
  0
LINE
  5
84
100
AcDbEntity
  8
1
  6
CONTINUOUS
 62
             2
100
AcDbLine
 10
498.99999999999972
 20
974.487912497617
 11
498.99999999999972
 21
983.00019705205705
  0
LINE
  5
83
100
AcDbEntity
  8
0
  6
DOT_CENTER
 62
             1
100
AcDbLine
 10
1760.421142003145
 20
1579.9990000000021
 11
1571.5792729832899
 21
1579.9990000000021
  0
LINE
  5
82
100
AcDbEntity
  8
0
  6
DOT_CENTER
 62
             1
100
AcDbLine
 10
1710.000500000001
 20
1576.000000000002
 11
1710.000500000001
 21
1583.9990000000021
  0
LINE
  5
81
100
AcDbEntity
  8
0
  6
DOT_CENTER
 62
             1
100
AcDbLine
 10
1710.000500000001
 20
1687.800499993687
 11
1710.000500000001
 21
1718.499500000001
  0
LINE
  5
80
100
AcDbEntity
  8
1
  6
CONTINUOUS
 62
             2
100
AcDbLine
 10
1691.888788065123
 20
1659.9990000000021
 11
1670.000500000001
 21
1659.9990000000021
  0
LINE
  5
7F
100
AcDbEntity
  8
1
  6
CONTINUOUS
 62
             2
100
AcDbLine
 10
1750.000500000001
 20
1505.4535950417751
 11
1769.4865604632071
 21
1526.7113087990349
  0
LINE
  5
7E
100
AcDbEntity
  8
1
  6
CONTINUOUS
 62
             2
100
AcDbLine
 10
1792.14036063751
 20
1551.424770020649
 11
1800.0
 21
1559.9990000000021
  0
LINE
  5
7D
100
AcDbEntity
  8
1
  6
CONTINUOUS
 62
             2
100
AcDbLine
 10
1624.5
 20
871.00000000000023
 11
1795.5
 21
871.00000000000023
  0
LINE
  5
7C
100
AcDbEntity
  8
1
  6
CONTINUOUS
 62
             2
100
AcDbLine
 10
1811.5
 20
871.00000000000023
 11
1834.8288786061901
 21
871.00000000000023
  0
LINE
  5
7B
100
AcDbEntity
  8
0
  6
CONTINUOUS
 62
             2
100
AcDbLine
 10
1627.0
 20
942.00000000000136
 11
1627.0
 21
930.99999999999977
  0
LINE
  5
7A
100
AcDbEntity
  8
0
  6
CONTINUOUS
 62
             2
100
AcDbLine
 10
1598.0
 20
922.75499933351102
 11
1598.0
 21
871.00000000000023
  0
LINE
  5
79
100
AcDbEntity
  8
1
  6
CONTINUOUS
 62
             2
100
AcDbLine
 10
1795.5
 20
919.49999999999977
 11
1750.000500000001
 21
919.49999999999977
  0
LINE
  5
78
100
AcDbEntity
  8
1
  6
CONTINUOUS
 62
             2
100
AcDbLine
 10
1811.5
 20
854.00000000000023
 11
1834.8288786061901
 21
854.00000000000023
  0
LINE
  5
77
100
AcDbEntity
  8
1
  6
CONTINUOUS
 62
             2
100
AcDbLine
 10
1624.5
 20
854.00000000000023
 11
1795.5
 21
854.00000000000023
  0
LINE
  5
76
100
AcDbEntity
  8
1
  6
DOT_CENTER
 62
             1
100
AcDbLine
 10
1820.5001828485269
 20
628.49999999999932
 11
1847.993899565068
 21
628.49999999999932
  0
LINE
  5
75
100
AcDbEntity
  8
1
  6
DOT_CENTER
 62
             1
100
AcDbLine
 10
1710.0
 20
522.60000599999967
 11
1710.0
 21
514.99999999999977
  0
LINE
  5
74
100
AcDbEntity
  8
1
  6
DOT_CENTER
 62
             1
100
AcDbLine
 10
1710.0
 20
685.63152516675825
 11
1710.0
 21
673.20004200000108
  0
LINE
  5
73
100
AcDbEntity
  8
1
  6
CONTINUOUS
 62
             2
100
AcDbLine
 10
1599.4995704243211
 20
582.99999999999932
 11
1596.5
 21
582.99999999999932
  0
LINE
  5
72
100
AcDbEntity
  8
1
  6
DOT_CENTER
 62
             1
100
AcDbLine
 10
1811.523618740157
 20
698.49999999999932
 11
1834.832295833309
 21
698.49999999999932
  0
LINE
  5
71
100
AcDbEntity
  8
1
  6
DOT_CENTER
 62
             1
100
AcDbLine
 10
1624.523618740157
 20
698.49999999999932
 11
1795.4768812598429
 21
698.49999999999932
  0
LINE
  5
70
100
AcDbEntity
  8
1
  6
CONTINUOUS
 62
             2
100
AcDbLine
 10
1599.499357091114
 20
538.99999999999955
 11
1571.5
 21
538.99999999999955
  0
LINE
  5
6F
100
AcDbEntity
  8
1
  6
CONTINUOUS
 62
             2
100
AcDbLine
 10
1820.5006261815929
 20
523.99999999999955
 11
1823.5
 21
523.99999999999955
  0
LINE
  5
6E
100
AcDbEntity
  8
1
  6
CONTINUOUS
 62
             2
100
AcDbLine
 10
1820.500613454328
 20
526.99999999999955
 11
1823.5
 21
526.99999999999955
  0
LINE
  5
6D
100
AcDbEntity
  8
1
  6
CONTINUOUS
 62
             2
100
AcDbLine
 10
720.00000000000045
 20
542.22500975000003
 11
740.50000000000045
 21
542.22500975000003
  0
LINE
  5
6C
100
AcDbEntity
  8
CSLAYER1
  6
CONTINUOUS
 62
             2
100
AcDbLine
 10
703.2000000000005
 20
674.80004800000006
 11
708.50000000000045
 21
674.80004800000006
  0
LINE
  5
6B
100
AcDbEntity
  8
1
  6
CONTINUOUS
 62
             2
100
AcDbLine
 10
706.50000000000045
 20
556.30099999999948
 11
706.50000000000045
 21
671.60003599999982
  0
LINE
  5
6A
100
AcDbEntity
  8
1
  6
CONTINUOUS
 62
             2
100
AcDbLine
 10
1704.0
 20
1649.131477767781
 11
1704.0
 21
1647.9990000000021
  0
LINE
  5
69
100
AcDbEntity
  8
0
  6
CONTINUOUS
 62
             2
100
AcDbLine
 10
1240.0
 20
1340.0
 11
1240.0
 21
1335.0
  0
LINE
  5
68
100
AcDbEntity
  8
CSLAYER1
  6
CONTINUOUS
 62
             2
100
AcDbLine
 10
1754.000499999999
 20
1390.0
 11
1774.6005000000009
 21
1390.0
  0
LINE
  5
67
100
AcDbEntity
  8
1
  6
CONTINUOUS
 62
             2
100
AcDbLine
 10
1713.6230219182571
 20
1378.0093918569839
 11
1713.6230219182571
 21
1363.250076
  0
LINE
  5
66
100
AcDbEntity
  8
1
  6
CONTINUOUS
 62
             2
100
AcDbLine
 10
1713.9144459999991
 20
1377.9876643810669
 11
1713.9144459999991
 21
1362.000076
  0
LINE
  5
65
100
AcDbEntity
  8
1
  6
CONTINUOUS
 62
             2
100
AcDbLine
 10
1746.152215205077
 20
1375.584138392996
 11
1746.152215205077
 21
1362.000076
  0
LINE
  5
64
100
AcDbEntity
  8
1
  6
CONTINUOUS
 62
             2
100
AcDbLine
 10
1754.000499999999
 20
1395.0
 11
1774.6005000000009
 21
1395.0
  0
LINE
  5
63
100
AcDbEntity
  8
CSLAYER1
  6
DOT_CENTER
 62
             1
100
AcDbLine
 10
1808.112172305521
 20
1344.0
 11
1811.000500000001
 21
1344.0
  0
LINE
  5
62
100
AcDbEntity
  8
CSLAYER1
  6
CONTINUOUS
 62
             2
100
AcDbLine
 10
1806.880464126898
 20
1354.0
 11
1816.500500000001
 21
1354.0
  0
LINE
  5
61
100
AcDbEntity
  8
CSLAYER1
  6
DOT_CENTER
 62
             1
100
AcDbLine
 10
1803.500500000001
 20
1307.9999999999991
 11
1803.500500000001
 21
1291.0
  0
LINE
  5
60
100
AcDbEntity
  8
CSLAYER1
  6
CONTINUOUS
 62
             2
100
AcDbLine
 10
1793.4693117010399
 20
1332.0
 11
1790.500500000001
 21
1332.0
  0
LINE
  5
5F
100
AcDbEntity
  8
CSLAYER1
  6
CONTINUOUS
 62
             2
100
AcDbLine
 10
1603.500500000001
 20
1331.526350714933
 11
1603.500500000001
 21
1354.0
  0
LINE
  5
5E
100
AcDbEntity
  8
CSLAYER1
  6
DOT_CENTER
 62
             1
100
AcDbLine
 10
1616.500500000001
 20
1324.959367991722
 11
1616.500500000001
 21
1361.0372620000001
  0
LINE
  5
5D
100
AcDbEntity
  8
CSLAYER1
  6
DOT_CENTER
 62
             1
100
AcDbLine
 10
1811.5005000000019
 20
1316.0
 11
1824.4809519999999
 21
1316.0
  0
LINE
  5
5C
100
AcDbEntity
  8
CSLAYER1
  6
DOT_CENTER
 62
             1
100
AcDbLine
 10
1624.500499271559
 20
1316.0
 11
1795.4400447939049
 21
1316.0
  0
LINE
  5
5B
100
AcDbEntity
  8
0
  6
CONTINUOUS
 62
             2
100
AcDbLine
 10
530.00050000000056
 20
895.0
 11
560.5
 21
895.0
  0
LINE
  5
5A
100
AcDbEntity
  8
1
  6
DOT_CENTER
 62
             1
100
AcDbLine
 10
553.99881775832091
 20
963.99999999999977
 11
560.09443400721011
 21
963.99999999999977
  0
LINE
  5
59
100
AcDbEntity
  8
1
  6
CONTINUOUS
 62
             2
100
AcDbLine
 10
553.99946006386187
 20
930.99999999999977
 11
554.5
 21
930.99999999999977
  0
LINE
  5
58
100
AcDbEntity
  8
0
  6
CONTINUOUS
 62
             2
100
AcDbLine
 10
1496.5009999999991
 20
919.00000000000136
 11
1492.0
 21
919.00000000000136
  0
LINE
  5
57
100
AcDbEntity
  8
0
  6
CONTINUOUS
 62
             2
100
AcDbLine
 10
1459.5009999999991
 20
919.00000000000136
 11
1448.0
 21
919.00000000000136
  0
LINE
  5
56
100
AcDbEntity
  8
0
  6
CONTINUOUS
 62
             2
100
AcDbLine
 10
1453.9989999999989
 20
899.0
 11
1448.0
 21
899.0
  0
LINE
  5
55
100
AcDbEntity
  8
0
  6
DOT_CENTER
 62
             1
100
AcDbLine
 10
1441.4982503654289
 20
1524.999500000001
 11
1413.0
 21
1524.999500000001
  0
LINE
  5
54
100
AcDbEntity
  8
0
  6
DOT_CENTER
 62
             1
100
AcDbLine
 10
1514.999025492504
 20
1524.9995000000019
 11
1514.999
 21
1524.999500000001
  0
LINE
  5
53
100
AcDbEntity
  8
0
  6
DOT_CENTER
 62
             1
100
AcDbLine
 10
1470.0
 20
1553.499875829729
 11
1470.0
 21
1581.9995000000019
  0
LINE
  5
52
100
AcDbEntity
  8
1
  6
CONTINUOUS
 62
             2
100
AcDbLine
 10
1704.0
 20
1649.131477767781
 11
1704.0
 21
1647.9990000000021
  0
LINE
  5
51
100
AcDbEntity
  8
0
  6
DOT_CENTER
 62
             1
100
AcDbLine
 10
1710.000500000001
 20
1648.200500006313
 11
1710.000500000001
 21
1579.9990000000021
  0
LINE
  5
50
100
AcDbEntity
  8
0
  6
CONTINUOUS
 62
             2
100
AcDbLine
 10
1193.2
 20
1680.0
 11
1193.2
 21
1716.8000000000011
  0
LINE
  5
4F
100
AcDbEntity
  8
0
  6
CONTINUOUS
 62
             2
100
AcDbLine
 10
1605.3130069832439
 20
1303.2
 11
1193.2
 21
1303.2
  0
LINE
  5
4E
100
AcDbEntity
  8
0
  6
CONTINUOUS
 62
             2
100
AcDbLine
 10
1740.000500000001
 20
1716.8000000000011
 11
1896.8000000000011
 21
1716.8000000000011
  0
LINE
  5
4D
100
AcDbEntity
  8
1
  6
CONTINUOUS
 62
             2
100
AcDbLine
 10
1680.000500000001
 20
1720.0
 11
1150.0
 21
1720.0
  0
LINE
  5
4C
100
AcDbEntity
  8
1
  6
CONTINUOUS
 62
             2
100
AcDbLine
 10
1809.245062646542
 20
1300.0
 11
1940.0
 21
1300.0
  0
LINE
  5
4B
100
AcDbEntity
  8
1
  6
CONTINUOUS
 62
             2
100
AcDbLine
 10
1622.2450626465379
 20
1300.0
 11
1809.245062646542
 21
1300.0
  0
LINE
  5
4A
100
AcDbEntity
  8
0
  6
CONTINUOUS
 62
             2
100
AcDbLine
 10
1190.0
 20
1362.5495097567989
 11
1190.0
 21
1657.4504902432011
  0
LINE
  5
49
100
AcDbEntity
  8
0
  6
CONTINUOUS
 62
             2
100
AcDbLine
 10
1190.0
 20
1662.5495097567989
 11
1190.0
 21
1690.0
  0
LINE
  5
48
100
AcDbEntity
  8
0
  6
CONTINUOUS
 62
             2
100
AcDbLine
 10
715.49912205617807
 20
854.99999999999909
 11
715.49874403166359
 21
904.00017895781457
  0
LINE
  5
47
100
AcDbEntity
  8
0
  6
CONTINUOUS
 62
             2
100
AcDbLine
 10
686.96684982238128
 20
926.0
 11
678.00050000000101
 21
926.0
  0
LINE
  5
46
100
AcDbEntity
  8
0
  6
DOT_CENTER
 62
             1
100
AcDbLine
 10
723.49912359936707
 20
854.79999999999927
 11
723.49874403139893
 21
904.00024403338375
  0
LINE
  5
45
100
AcDbEntity
  8
0
  6
DOT_CENTER
 62
             1
100
AcDbLine
 10
723.49974077999377
 20
774.79999999999927
 11
723.49927480862061
 21
835.19999999999891
  0
LINE
  5
44
100
AcDbEntity
  8
0
  6
DOT_CENTER
 62
             1
100
AcDbLine
 10
1771.0005000000001
 20
936.99999999999977
 11
1771.0005000000001
 21
914.47616476412554
  0
LINE
  5
43
100
AcDbEntity
  8
1
  6
CONTINUOUS
 62
             2
100
AcDbLine
 10
673.4989999999998
 20
896.0
 11
673.4989999999998
 21
907.0
  0
LINE
  5
42
100
AcDbEntity
  8
1
  6
CONTINUOUS
 62
             2
100
AcDbLine
 10
1190.0
 20
1357.4504902432011
 11
1190.0
 21
1340.0
  0
LINE
  5
41
100
AcDbEntity
  8
1
  6
CONTINUOUS
 62
             2
100
AcDbLine
 10
1190.0
 20
1657.4504902432011
 11
1190.0
 21
1362.5495097567989
  0
LINE
  5
40
100
AcDbEntity
  8
1
  6
CONTINUOUS
 62
             2
100
AcDbLine
 10
1570.0
 20
1546.3496774209609
 11
1570.0
 21
1680.0
  0
LINE
  5
3F
100
AcDbEntity
  8
1
  6
CONTINUOUS
 62
             2
100
AcDbLine
 10
1570.0
 20
1348.44921261639
 11
1570.0
 21
1503.6496774207419
  0
LINE
  5
3E
100
AcDbEntity
  8
1
  6
DOTTED
 62
             3
100
AcDbLine
 10
1545.0
 20
1546.3495967765491
 11
1545.0
 21
1670.0
  0
LINE
  5
3D
100
AcDbEntity
  8
1
  6
DOTTED
 62
             3
100
AcDbLine
 10
1545.0
 20
1361.078025545643
 11
1545.0
 21
1503.6495967763301
  0
LINE
  5
3C
100
AcDbEntity
  8
1
  6
DOTTED
 62
             3
100
AcDbLine
 10
1214.9999999999991
 20
1356.8499999999981
 11
1214.9999999999991
 21
1350.0
  0
LINE
  5
3B
100
AcDbEntity
  8
1
  6
DOTTED
 62
             3
100
AcDbLine
 10
1215.0
 20
1656.8499999999981
 11
1214.9999999999991
 21
1363.1500000000001
  0
LINE
  5
3A
100
AcDbEntity
  8
1
  6
DOTTED
 62
             3
100
AcDbLine
 10
1531.4446120473981
 20
1350.0
 11
1214.9999999999991
 21
1350.0
  0
LINE
  5
39
100
AcDbEntity
  8
1
  6
CONTINUOUS
 62
             2
100
AcDbLine
 10
1558.262858920931
 20
1354.3782589768621
 11
1561.5000000000009
 21
1356.2472232502671
  0
LINE
  5
38
100
AcDbEntity
  8
1
  6
DOT_CENTER
 62
             1
100
AcDbLine
 10
1547.134059534498
 20
1360.0
 11
1563.9254729863601
 21
1360.0
  0
LINE
  5
37
100
AcDbEntity
  8
1
  6
DOTTED
 62
             3
100
AcDbLine
 10
1246.326716807823
 20
527.70000000000005
 11
1540.0
 21
527.70000000000005
  0
LINE
  5
36
100
AcDbEntity
  8
1
  6
CONTINUOUS
 62
             2
100
AcDbLine
 10
1255.5
 20
907.0
 11
1250.0005000000001
 21
907.0
  0
LINE
  5
35
100
AcDbEntity
  8
1
  6
CONTINUOUS
 62
             2
100
AcDbLine
 10
1290.0005000000001
 20
896.00000000000091
 11
1290.0005000000001
 21
907.0
  0
LINE
  5
34
100
AcDbEntity
  8
0
  6
CONTINUOUS
 62
             2
100
AcDbLine
 10
669.5392622549025
 20
908.0
 11
669.48050000000057
 21
907.0
  0
LINE
  5
33
100
AcDbEntity
  8
0
  6
CONTINUOUS
 62
             2
100
AcDbLine
 10
670.5005000000001
 20
930.0
 11
670.5005000000001
 21
947.77433845961332
  0
LINE
  5
32
100
AcDbEntity
  8
0
  6
CONTINUOUS
 62
             2
100
AcDbLine
 10
540.0
 20
514.99999999999955
 11
703.2000000000005
 21
514.99999999999955
  0
LINE
  5
31
100
AcDbEntity
  8
1
  6
CONTINUOUS
 62
             2
100
AcDbLine
 10
390.00050000000061
 20
895.0
 11
390.00050000000061
 21
894.99949999999899
  0
LINE
  5
30
100
AcDbEntity
  8
0
  6
DOT_CENTER
 62
             1
100
AcDbLine
 10
673.37893040121003
 20
944.99999999999955
 11
693.49941885474789
 21
944.99999999999955
  0
LINE
  5
2F
100
AcDbEntity
  8
0
  6
CONTINUOUS
 62
             2
100
AcDbLine
 10
715.49941885474777
 20
754.99999999999909
 11
715.49941885474777
 21
741.19952799999987
  0
CIRCLE
  5
55B
100
AcDbEntity
  8
0
 62
             7
100
AcDbCircle
 10
591.95932791572989
 20
843.58371925511005
 40
5.0
  0
HATCH
  5
55C
100
AcDbEntity
  8
0
 62
             7
100
AcDbHatch
 10
0.0
 20
0.0
 30
0.0
210
0.0
220
0.0
230
1.0
  2
SOLID
 70
             1
 71
             1
 91
        1
 92
        1
 93
        1
 72
             2
 10
591.95932791572989
 20
843.58371925511005
 40
5.0
 50
-180.0
 51
180.0
 73
             1
 97
        1
330
55B
 75
             0
 76
             1
 98
        1
 10
0.0
 20
0.0
  0
CIRCLE
  5
55E
100
AcDbEntity
  8
0
 62
             7
100
AcDbCircle
 10
553.31982430840969
 20
617.76357533967234
 40
5.0
  0
HATCH
  5
55F
100
AcDbEntity
  8
0
 62
             7
100
AcDbHatch
 10
0.0
 20
0.0
 30
0.0
210
0.0
220
0.0
230
1.0
  2
SOLID
 70
             1
 71
             1
 91
        1
 92
        1
 93
        1
 72
             2
 10
553.31982430840969
 20
617.76357533967234
 40
5.0
 50
-180.0
 51
180.0
 73
             1
 97
        1
330
55E
 75
             0
 76
             1
 98
        1
 10
0.0
 20
0.0
  0
LINE
  5
561
100
AcDbEntity
  8
1
 62
             7
100
AcDbLine
 10
1706.2440021212731
 20
1687.440985588971
 11
1699.4522897782724
 21
1701.4061893697235
  0
LINE
  5
562
100
AcDbEntity
  8
1
 62
             7
100
AcDbLine
 10
1706.2440021212731
 20
1687.440985588971
 11
1707.3448085874143
 21
1702.9310630036293
  0
LINE
  5
564
100
AcDbEntity
  8
1
 62
             7
100
AcDbLine
 10
1645.6085359377821
 20
1558.4990000000021
 11
1655.1692308467937
 21
1546.2618685532614
  0
LINE
  5
565
100
AcDbEntity
  8
1
 62
             7
100
AcDbLine
 10
1645.6085359377821
 20
1558.4990000000021
 11
1647.7697748834485
 21
1543.1209858431694
  0
LINE
  5
567
100
AcDbEntity
  8
1
 62
             7
100
AcDbLine
 10
1646.9079772881121
 20
1590.4990000000021
 11
1657.8887394016447
 21
1579.5182378864683
  0
LINE
  5
568
100
AcDbEntity
  8
1
 62
             7
100
AcDbLine
 10
1646.9079772881121
 20
1590.4990000000021
 11
1650.9272151745781
 21
1575.4990000000018
  0
LINE
  5
56A
100
AcDbEntity
  8
0
 62
             7
100
AcDbLine
 10
1654.6675629098399
 20
673.20004200000108
 11
1649.5238278125803
 21
687.85255927305798
  0
LINE
  5
56B
100
AcDbEntity
  8
0
 62
             7
100
AcDbLine
 10
1654.6675629098399
 20
673.20004200000108
 11
1657.5392162818039
 21
688.46136173648847
  0
LINE
  5
56D
100
AcDbEntity
  8
1
 62
             7
100
AcDbLine
 10
1247.851963660979
 20
527.70000000000005
 11
1258.8327257745123
 21
516.719237886467
  0
LINE
  5
56E
100
AcDbEntity
  8
1
 62
             7
100
AcDbLine
 10
1247.851963660979
 20
527.70000000000005
 11
1251.8712015474459
 21
512.70000000000005
  0
LINE
  5
570
100
AcDbEntity
  8
1
 62
             7
100
AcDbLine
 10
1164.9999999999991
 20
478.19999999999982
 11
1154.0192378864658
 21
489.18076211353286
  0
LINE
  5
571
100
AcDbEntity
  8
1
 62
             7
100
AcDbLine
 10
1164.9999999999991
 20
478.19999999999982
 11
1160.9807621135321
 21
493.19999999999976
  0
LINE
  5
573
100
AcDbEntity
  8
1
 62
             7
100
AcDbLine
 10
1196.8499999999999
 20
926.11621408168639
 11
1185.8692378864666
 21
937.09697619521944
  0
LINE
  5
574
100
AcDbEntity
  8
1
 62
             7
100
AcDbLine
 10
1196.8499999999999
 20
926.11621408168639
 11
1192.830762113533
 21
941.11621408168639
  0
LINE
  5
576
100
AcDbEntity
  8
1
 62
             7
100
AcDbLine
 10
1260.0
 20
855.0
 11
1259.5649091594375
 21
870.52304638749979
  0
LINE
  5
577
100
AcDbEntity
  8
1
 62
             7
100
AcDbLine
 10
1260.0
 20
855.0
 11
1267.3847234728687
 21
868.6608979359803
  0
LINE
  5
579
100
AcDbEntity
  8
1
 62
             7
100
AcDbLine
 10
1250.9360048003821
 20
1371.244961936743
 11
1245.9976978559278
 21
1356.5219392270421
  0
LINE
  5
57A
100
AcDbEntity
  8
1
 62
             7
100
AcDbLine
 10
1250.9360048003821
 20
1371.244961936743
 11
1239.2977941799493
 21
1360.9636037218741
  0
LINE
  5
57C
100
AcDbEntity
  8
1
 62
             7
100
AcDbLine
 10
1797.216588751952
 20
1636.5183523155949
 11
1797.7585480166172
 21
1652.038035087593
  0
LINE
  5
57D
100
AcDbEntity
  8
1
 62
             7
100
AcDbLine
 10
1797.216588751952
 20
1636.5183523155949
 11
1805.4457806289674
 21
1649.6878122224884
  0
LINE
  5
57F
100
AcDbEntity
  8
1
 62
             7
100
AcDbLine
 10
1670.000500000001
 20
1659.9990000000021
 11
1662.3440083278458
 21
1673.5094555238632
  0
LINE
  5
580
100
AcDbEntity
  8
1
 62
             7
100
AcDbLine
 10
1670.000500000001
 20
1659.9990000000021
 11
1670.125011469981
 21
1675.5276435364431
  0
LINE
  5
582
100
AcDbEntity
  8
0
 62
             2
100
AcDbLine
 10
1722.2
 20
1275.687692747
 11
1726.2192378864668
 21
1260.687692747
  0
LINE
  5
583
100
AcDbEntity
  8
0
 62
             2
100
AcDbLine
 10
1722.2
 20
1275.687692747
 11
1718.1807621135333
 21
1260.687692747
  0
POLYLINE
  5
595
100
AcDbEntity
  8
5
 62
             7
100
AcDb2dPolyline
 66
             1
 10
0.0
 20
0.0
 30
0.0
 70
             1
  0
VERTEX
  5
596
100
AcDbEntity
  8
0
100
AcDbVertex
100
AcDb2dVertex
 10
2661.9754067669201
 20
1934.4501153846161
  0
VERTEX
  5
597
100
AcDbEntity
  8
0
100
AcDbVertex
100
AcDb2dVertex
 10
2661.9754067669201
 20
1902.4501153846161
  0
VERTEX
  5
598
100
AcDbEntity
  8
0
100
AcDbVertex
100
AcDb2dVertex
 10
2699.4154067669201
 20
1902.4501153846161
  0
VERTEX
  5
599
100
AcDbEntity
  8
0
100
AcDbVertex
100
AcDb2dVertex
 10
2699.4154067669201
 20
1934.4501153846161
  0
SEQEND
  5
59A
100
AcDbEntity
  8
0
  0
POLYLINE
  5
59C
100
AcDbEntity
  8
5
 62
             7
100
AcDb2dPolyline
 66
             1
 10
0.0
 20
0.0
 30
0.0
 70
             1
  0
VERTEX
  5
59D
100
AcDbEntity
  8
0
100
AcDbVertex
100
AcDb2dVertex
 10
2349.8916221515351
 20
1932.4501153846161
  0
VERTEX
  5
59E
100
AcDbEntity
  8
0
100
AcDbVertex
100
AcDb2dVertex
 10
2349.8916221515351
 20
1900.4501153846161
  0
VERTEX
  5
59F
100
AcDbEntity
  8
0
100
AcDbVertex
100
AcDb2dVertex
 10
2381.8916221515351
 20
1900.4501153846161
  0
VERTEX
  5
5A0
100
AcDbEntity
  8
0
100
AcDbVertex
100
AcDb2dVertex
 10
2381.8916221515351
 20
1932.4501153846161
  0
SEQEND
  5
5A1
100
AcDbEntity
  8
0
  0
POLYLINE
  5
5AB
100
AcDbEntity
  8
5
 62
             7
100
AcDb2dPolyline
 66
             1
 10
0.0
 20
0.0
 30
0.0
 70
             1
  0
VERTEX
  5
5AC
100
AcDbEntity
  8
0
100
AcDbVertex
100
AcDb2dVertex
 10
2763.5932622910968
 20
1934.4501153846161
  0
VERTEX
  5
5AD
100
AcDbEntity
  8
0
100
AcDbVertex
100
AcDb2dVertex
 10
2763.5932622910968
 20
1902.4501153846161
  0
VERTEX
  5
5AE
100
AcDbEntity
  8
0
100
AcDbVertex
100
AcDb2dVertex
 10
2802.953262291097
 20
1902.4501153846161
  0
VERTEX
  5
5AF
100
AcDbEntity
  8
0
100
AcDbVertex
100
AcDb2dVertex
 10
2802.953262291097
 20
1934.4501153846161
  0
SEQEND
  5
5B0
100
AcDbEntity
  8
0
  0
POLYLINE
  5
5E7
100
AcDbEntity
  8
1
 62
             7
100
AcDb2dPolyline
 66
             1
 10
0.0
 20
0.0
 30
0.0
 70
             1
  0
VERTEX
  5
5E8
100
AcDbEntity
  8
0
100
AcDbVertex
100
AcDb2dVertex
 10
2000.531707944798
 20
1657.2485000000011
  0
VERTEX
  5
5E9
100
AcDbEntity
  8
0
100
AcDbVertex
100
AcDb2dVertex
 10
2000.531707944798
 20
1622.2485000000011
  0
VERTEX
  5
5EA
100
AcDbEntity
  8
0
100
AcDbVertex
100
AcDb2dVertex
 10
2035.531707944798
 20
1622.2485000000011
  0
VERTEX
  5
5EB
100
AcDbEntity
  8
0
100
AcDbVertex
100
AcDb2dVertex
 10
2035.531707944798
 20
1657.2485000000011
  0
SEQEND
  5
5EC
100
AcDbEntity
  8
0
  0
POLYLINE
  5
5EE
100
AcDbEntity
  8
0
 62
             7
100
AcDb2dPolyline
 66
             1
 10
0.0
 20
0.0
 30
0.0
 70
             1
  0
VERTEX
  5
5EF
100
AcDbEntity
  8
0
100
AcDbVertex
100
AcDb2dVertex
 10
1028.2053390941901
 20
1677.8135327064099
  0
VERTEX
  5
5F0
100
AcDbEntity
  8
0
100
AcDbVertex
100
AcDb2dVertex
 10
1028.2053390941901
 20
1642.8135327064099
  0
VERTEX
  5
5F1
100
AcDbEntity
  8
0
100
AcDbVertex
100
AcDb2dVertex
 10
1071.25533909419
 20
1642.8135327064099
  0
VERTEX
  5
5F2
100
AcDbEntity
  8
0
100
AcDbVertex
100
AcDb2dVertex
 10
1071.25533909419
 20
1677.8135327064099
  0
SEQEND
  5
5F3
100
AcDbEntity
  8
0
  0
POLYLINE
  5
5F5
100
AcDbEntity
  8
0
 62
             7
100
AcDb2dPolyline
 66
             1
 10
0.0
 20
0.0
 30
0.0
 70
             1
  0
VERTEX
  5
5F6
100
AcDbEntity
  8
0
100
AcDbVertex
100
AcDb2dVertex
 10
2011.37224376062
 20
1015.25
  0
VERTEX
  5
5F7
100
AcDbEntity
  8
0
100
AcDbVertex
100
AcDb2dVertex
 10
2011.37224376062
 20
980.24999999999977
  0
VERTEX
  5
5F8
100
AcDbEntity
  8
0
100
AcDbVertex
100
AcDb2dVertex
 10
2046.37224376062
 20
980.24999999999977
  0
VERTEX
  5
5F9
100
AcDbEntity
  8
0
100
AcDbVertex
100
AcDb2dVertex
 10
2046.37224376062
 20
1015.25
  0
SEQEND
  5
5FA
100
AcDbEntity
  8
0
  0
POLYLINE
  5
5FC
100
AcDbEntity
  8
0
 62
             7
100
AcDb2dPolyline
 66
             1
 10
0.0
 20
0.0
 30
0.0
 70
             1
  0
VERTEX
  5
5FD
100
AcDbEntity
  8
0
100
AcDbVertex
100
AcDb2dVertex
 10
226.237557397686
 20
948.24949999999899
  0
VERTEX
  5
5FE
100
AcDbEntity
  8
0
100
AcDbVertex
100
AcDb2dVertex
 10
226.237557397686
 20
913.24949999999899
  0
VERTEX
  5
5FF
100
AcDbEntity
  8
0
100
AcDbVertex
100
AcDb2dVertex
 10
269.28755739768599
 20
913.24949999999899
  0
VERTEX
  5
600
100
AcDbEntity
  8
0
100
AcDbVertex
100
AcDb2dVertex
 10
269.28755739768599
 20
948.24949999999899
  0
SEQEND
  5
601
100
AcDbEntity
  8
0
  0
POLYLINE
  5
604
100
AcDbEntity
  8
0
 62
             7
100
AcDb2dPolyline
 66
             1
 10
0.0
 20
0.0
 30
0.0
 70
             1
  0
VERTEX
  5
605
100
AcDbEntity
  8
0
100
AcDbVertex
100
AcDb2dVertex
 10
178.08684594575999
 20
948.24949999999899
  0
VERTEX
  5
606
100
AcDbEntity
  8
0
100
AcDbVertex
100
AcDb2dVertex
 10
178.08684594575999
 20
913.24949999999899
  0
VERTEX
  5
607
100
AcDbEntity
  8
0
100
AcDbVertex
100
AcDb2dVertex
 10
219.03684594576001
 20
913.24949999999899
  0
VERTEX
  5
608
100
AcDbEntity
  8
0
100
AcDbVertex
100
AcDb2dVertex
 10
219.03684594576001
 20
948.24949999999899
  0
SEQEND
  5
609
100
AcDbEntity
  8
0
  0
POLYLINE
  5
60B
100
AcDbEntity
  8
0
 62
             7
100
AcDb2dPolyline
 66
             1
 10
0.0
 20
0.0
 30
0.0
 70
             1
  0
VERTEX
  5
60C
100
AcDbEntity
  8
0
100
AcDbVertex
100
AcDb2dVertex
 10
1028.2053390941901
 20
1581.25
  0
VERTEX
  5
60D
100
AcDbEntity
  8
0
100
AcDbVertex
100
AcDb2dVertex
 10
1028.2053390941901
 20
1546.25
  0
VERTEX
  5
60E
100
AcDbEntity
  8
0
100
AcDbVertex
100
AcDb2dVertex
 10
1069.1553390941899
 20
1546.25
  0
VERTEX
  5
60F
100
AcDbEntity
  8
0
100
AcDbVertex
100
AcDb2dVertex
 10
1069.1553390941899
 20
1581.25
  0
SEQEND
  5
610
100
AcDbEntity
  8
0
  0
ENDSEC
  0
SECTION
  2
OBJECTS
  0
DICTIONARY
  5
19
100
AcDbDictionary
  3
ACAD_GROUP
350
1A
  3
ACAD_MLINESTYLE
350
1B
  0
DICTIONARY
  5
1A
102
{ACAD_REACTORS
330
19
102
}
100
AcDbDictionary
  0
DICTIONARY
  5
1B
102
{ACAD_REACTORS
330
19
102
}
100
AcDbDictionary
  3
STANDARD
350
1C
  0
MLINESTYLE
  5
1C
102
{ACAD_REACTORS
330
1B
102
}
100
AcDbMlineStyle
  2
STANDARD
 70
             0
  3

 62
             0
 51
90.0
 52
90.0
 71
             2
 49
0.5
 62
           256
  6
BYLAYER
 49
-0.5
 62
           256
  6
BYLAYER
  0
ENDSEC
  0
EOF
